Прощай, любовь / Bye Bye Love (Сэм Уайзман / Sam Weisman) [1995, США, Комедия, HDTV 1080i] MVO (Первый канал)

Ответить на тему
 
Автор Сообщение

user ®

Стаж: 7 лет 7 месяцев

Сообщений: 20008

Пост Пост: #1 от 18-Сен-2014 04:15

[Цитировать]

Прощай, любовь / Bye Bye Love
Страна: США
Жанр: Комедия
Год выпуска: 1995
Продолжительность: 01:38:40
Перевод: Профессиональный (многоголосый закадровый) Первый канал
Cубтитры: нет
Оригинальная аудиодорожка: нет
Режиссер: Сэм Уайзман / Sam Weisman
В ролях: Мэттью Модайн /Matthew Modine/, Рэнди Куэйд /Randy Quaid/, Пол Райзер /Paul Reiser/, Джанин Гарофало /Janeane Garofalo/, Эми Бреннемэн /Amy Brenneman/, Элайза Душку /Eliza Dushku/, Эд Флэндерс /Ed Flanders/, Мария Питилло /Maria Pitillo/, Линдсэй Краузе /Lindsay Crouse/, Росс Мэлингер /Ross Malinger/, Джонни Уитворт /Johnny Whitworth/, Уэнделл Пирс /Wendell Pierce/, Кэмерон Бойд /Cameron Boyd/, Мэй Уитмэн /Mae Whitman
Описание: Хотя эта мелодраматическая комедия называется словами из песни: "Прощай любовь, прощай счастье", именно любовь является ее стержнем. Ее герои, трое друзей Модин, Куэйд и Райзер, разведены со своими женами. Они встречаются со своими детьми, новыми женщинами, друг с другом, но раны развода не заживают. Все это переплетение жизней, судеб, бед и радостей, так или иначе связанное с темой развода, дается на фоне радиопередачи о проблемах развода. Примечательно, что ведущий, бичующий тех, кто бросает своих жен и детей, сам разведен и был женат четыре раза. К нему то и врывается прямо на станцию, в живой эфир, импульсивный Рэнди Куэйд, чтобы разобраться с ненавистным ему морализатором и обличителем. В результате он произносит самый трогательный монолог, выражающий суть эмоциональной боли развода.
Доп. информация: На раздаче только днем! Наделайте кто-н рипы из этого исходника 720р и 400р.
Сэмпл: http://multi-up.com/999645
Тип релиза: HDTV 1080i
Контейнер: MKV
Видео: AVC, 1920x1080, 11,2 Mbit/s, 25 fps
Аудио: MP2, 192 kbit/s, 48 kHz, 2 ch
MediaInfo
Общее
Уникальный идентификатор : 200387678271247847428904781010062537801 (0x96C143546B49D406B1D44C53CDDBF449)
Полное имя : E:\Temp\Прощай, любовь.mkv
Формат : Matroska
Версия формата : Version 4 / Version 2
Размер файла : 8,03 Гбайт
Продолжительность : 1 ч. 38 м.
Общий поток : 11,7 Мбит/сек
Дата кодирования : UTC 2010-02-22 21:41:31
Программа кодирования : mkvmerge v5.9.0 ('On The Loose') built on Dec 9 2012 15:37:01
Библиотека кодирования : libebml v1.3.0 + libmatroska v1.4.0
Видео
Идентификатор : 1
Формат : AVC
Формат/Информация : Advanced Video Codec
Профиль формата : High@L4.0
Параметр CABAC формата : Да
Параметр ReFrames формата : 3 кадра
Идентификатор кодека : V_MPEG4/ISO/AVC
Продолжительность : 1 ч. 38 м.
Битрейт : 11,2 Мбит/сек
Ширина : 1920 пикселей
Высота : 1080 пикселей
Соотношение сторон : 16:9
Режим частоты кадров : Постоянный
Частота кадров : 25,000 кадров/сек
Стандарт вещания : Component
Цветовое пространство : YUV
Субдискретизация насыщенности : 4:2:0
Битовая глубина : 8 бит
Тип развёртки : Чересстрочная
Порядок развёртки : Верхнее поле первое
Бит/(Пиксели*Кадры) : 0.217
Размер потока : 7,74 Гбайт (96%)
Default : Да
Forced : Нет
Основные цвета : BT.709
Характеристики трансфера : BT.709
Коэффициенты матрицы : BT.709
Аудио
Идентификатор : 2
Формат : MPEG Audio
Версия формата : Version 1
Профиль формата : Layer 2
Идентификатор кодека : A_MPEG/L2
Идентификатор кодека/Подсказка : MP2
Продолжительность : 1 ч. 38 м.
Вид битрейта : Постоянный
Битрейт : 192 Кбит/сек
Каналы : 2 канала
Частота : 48,0 КГц
Метод сжатия : С потерями
Размер потока : 136 Мбайт (2%)
Язык : Russian
Default : Да
Forced : Нет
Скриншоты
Скачать

Скачать торрент!

Как скачивать? · Что такое торрент? · Рейтинг и ограничения

Сайт не распространяет и не хранит электронные версии произведений, а лишь предоставляет доступ к создаваемому пользователями каталогу ссылок на торрент-файлы, которые содержат только списки хеш-сумм

[Профиль] [ЛС]
Показать сообщения:    
Ответить на тему

Текущее время: Сегодня 09:51

Часовой пояс: GMT + 4



Вы не можете начинать темы
Вы не можете отвечать на сообщения
Вы не можете редактировать свои сообщения
Вы не можете удалять свои сообщения
Вы не можете голосовать в опросах
Вы не можете прикреплять файлы к сообщениям
Вы не можете скачивать файлы