Уснувший пассажир (Ярополк Лапшин) [1993, Детектив, SATRip]

Ответить на тему
 
Автор Сообщение

user ®

Стаж: 7 лет 7 месяцев

Сообщений: 20008

Пост Пост: #1 от 18-Сен-2014 04:15

[Цитировать]

Уснувший пассажир
Жанр: Детектив
Год выпуска: 1993
Продолжительность: 1:17:48
Режиссёр: Ярополк Лапшин
В ролях: Анатолий Кузнецов, Ольга Остроумова, Владимир Кашпур, Владимир Кузнецов (VI), Игорь Шарапов, Шавкат Газиев, Александр Пашутин, Сейдулла Молдаханов, Николай Шушарин, Виталий Краев, Валерий Храмцов
Описание: На затерянном в степи аэродроме совершает непредвиденную посадку самолет, следующий рейсом из Москвы в Сингапур - столицу одного из азиатских государств. Пока экипаж производит ремонт, пассажиры прогуливаются неподалеку. Вскоре в салоне воздушного судна находят труп иностранного туриста, летевшего первым классом. Среди тех, кто летит этим рейсом, оказывается бывший полковник Московского уголовного розыска Смирнов, который сразу решает провести расследование преступления и найти виновного. Кому же мог помешать несчастный иностранец? Случайная он жертва, или убийство было тщательно спланировано? Бывший следователь по особо важным делам начинает наблюдать за всеми - ведь убийцей может оказаться кто угодно. Так, отбрасывая неудачные версии одну за другой, неутомимый следователь наконец устанавливает личность преступника, который пытался скрыться. Но правда оказывается настолько неожиданной и жуткой, что даже опытный сыщик не сразу соглашается в нее верить: преступников оказывается двое. Зато напарник-убийца очень быстро оценивает ситуацию и не теряет времени даром, пытаясь уничтожить полковника - единственного, кто знает все о его темных делах...
Доп. информация: Производство: Евразия (Свердловская к/ст) при участии Роскомкино
На видео местами баннеры с названием фильма
Сэмпл: https://www.sendspace.com/file/1y7bex
Качество видео: SATRip
Формат видео: AVI
Видео: XviD MPEG-4 , 704x528 (1.33:1) , 25 fps ,2382 kbps avg
Аудио: AC3 , 48 kHz , 192.00 kbps avg , 2/0 (L,R) ch
MediaInfo
General
Complete name Уснувший пассажир 1993.avi
Format : AVI
Format/Info : Audio Video Interleave
File size : 1.40 GiB
Duration : 1h 17mn
Overall bit rate : 2 583 Kbps
Writing library : VirtualDub build 35491/release
Video
ID : 0
Format : MPEG-4 Visual
Format profile : Advanced Simple@L5
Format settings, BVOP : 2
Format settings, QPel : No
Format settings, GMC : No warppoints
Format settings, Matrix : Default (H.263)
Codec ID : XVID
Codec ID/Hint : XviD
Duration : 1h 17mn
Bit rate : 2 382 Kbps
Width : 704 pixels
Height : 528 pixels
Display aspect ratio : 4:3
Frame rate : 25.000 fps
Color space : YUV
Chroma subsampling : 4:2:0
Bit depth : 8 bits
Scan type : Progressive
Compression mode : Lossy
Bits/(Pixel*Frame) : 0.256
Stream size : 1.29 GiB (92%)
Writing library : XviD 1.2.1 (UTC 2008-12-04)
Audio
ID : 1
Format : AC-3
Format/Info : Audio Coding 3
Mode extension : CM (complete main)
Format settings, Endianness : Big
Codec ID : 2000
Duration : 1h 17mn
Bit rate mode : Constant
Bit rate : 192 Kbps
Channel(s) : 2 channels
Channel positions : Front: L R
Sampling rate : 48.0 KHz
Bit depth : 16 bits
Compression mode : Lossy
Stream size : 107 MiB (7%)
Alignment : Aligned on interleaves
Interleave, duration : 40 ms (1.00 video frame)
Interleave, preload duration : 512 ms
Скриншот c названием фильма Скриншоты
Скачать

Скачать торрент!

Как скачивать? · Что такое торрент? · Рейтинг и ограничения

Сайт не распространяет и не хранит электронные версии произведений, а лишь предоставляет доступ к создаваемому пользователями каталогу ссылок на торрент-файлы, которые содержат только списки хеш-сумм

[Профиль] [ЛС]
Показать сообщения:    
Ответить на тему

Текущее время: Сегодня 13:41

Часовой пояс: GMT + 4



Вы не можете начинать темы
Вы не можете отвечать на сообщения
Вы не можете редактировать свои сообщения
Вы не можете удалять свои сообщения
Вы не можете голосовать в опросах
Вы не можете прикреплять файлы к сообщениям
Вы не можете скачивать файлы