Горчаков (Андрей Иванов) [2014, боевик, детектив, SATRip]

Ответить на тему
 
Автор Сообщение

user ®

Стаж: 7 лет 7 месяцев

Сообщений: 20008

Пост Пост: #1 от 17-Сен-2014 16:10

[Цитировать]

Горчаков
Жанр: боевик, детектив
Год выпуска: 2014
Продолжительность: 02:58:08
Режиссёр: Андрей Иванов
В ролях: Егор Клеймёнов, Ярослав Бойко, Фархад Махмудов, Алексей Булдаков, Анатолий Зиновенко, Олеся Жураковская, Сергей Деньга
Описание: Все силы местного РОВД брошены на борьбу с преступной группой, представитель которой - Вениамин - везет на продажу партию похищенного антиракового препарата ценой более 10 млн. рублей. Однако курьер решает присвоить товар себе и, спасаясь от преследования узнавших об этом бандитов, находит убежище у своей бывшей пассии - матери капитана полиции Олега Горчакова. Свои противозаконные намерения Вениамин скрывает, а когда выясняется, что он – отец Горчакова, решает использовать сына-опера для успеха своей операции. Не догадываясь о корыстных намерениях новоиспеченного отца, Горчаков и представить себе не может, в какой заварухе окажется.
Доп. информация: На ТВ 3 серии были объединены в 1.
Сэмпл: http://multi-up.com/999739
Качество видео: SATRip
Формат видео: AVI
Видео: MPEG4, XviD, 720x400 (16/9), 25.000 fps, 1 553 Kbps (0.216 bit/pixel)
Аудио: AC-3, 48.0 KHz, 2 ch, 192 Kbps, CBR
MediaInfo
Общее
Полное имя : K:\Горчаков.avi
Формат : AVI
Формат/Информация : Audio Video Interleave
Профиль формата : OpenDML
Размер файла : 2,19 Гбайт
Продолжительность : 2 ч. 58 м.
Общий поток : 1757 Кбит/сек
Название фильма : Горчаков (2014)
Программа кодирования : VirtualDubMod 1.5.10.2 (build 2540/release)
Библиотека кодирования : VirtualDubMod build 2540/release
Правообладатель : miha2154
Видео
Идентификатор : 0
Формат : MPEG-4 Visual
Профиль формата : Advanced Simple@L5
Параметр BVOP формата : 1
Параметр QPel формата : Нет
Параметр GMC формата : Без точки перехода
Параметр матрицы формата : Выборочная
Идентификатор кодека : XVID
Идентификатор кодека/Подсказка : XviD
Продолжительность : 2 ч. 58 м.
Битрейт : 1553 Кбит/сек
Ширина : 720 пикселей
Высота : 400 пикселей
Соотношение сторон : 16:9
Частота кадров : 25,000 кадров/сек
Цветовое пространство : YUV
Субдискретизация насыщенности : 4:2:0
Битовая глубина : 8 бит
Тип развёртки : Прогрессивная
Метод сжатия : С потерями
Бит/(Пиксели*Кадры) : 0.216
Размер потока : 1,93 Гбайт (88%)
Библиотека кодирования : XviD 65
Аудио
Идентификатор : 1
Формат : AC-3
Формат/Информация : Audio Coding 3
Расширение режима : CM (complete main)
Параметр Endianness формата : Big
Идентификатор кодека : 2000
Продолжительность : 2 ч. 58 м.
Вид битрейта : Постоянный
Битрейт : 192 Кбит/сек
Каналы : 2 канала
Расположение каналов : Front: L R
Частота : 48,0 КГц
Битовая глубина : 16 бит
Метод сжатия : С потерями
Задержка видео : 107 мс.
Размер потока : 245 Мбайт (11%)
Выравнивание : Разделение по промежуткам
Продолжительность промежутка : 40 мс. (1,00 видеокадр)
Время предзагрузки промежутка : 500 мс.
Скриншот c названием фильма Скриншоты
Скачать

Скачать торрент!

Как скачивать? · Что такое торрент? · Рейтинг и ограничения

Сайт не распространяет и не хранит электронные версии произведений, а лишь предоставляет доступ к создаваемому пользователями каталогу ссылок на торрент-файлы, которые содержат только списки хеш-сумм

[Профиль] [ЛС]
Показать сообщения:    
Ответить на тему

Текущее время: Сегодня 08:09

Часовой пояс: GMT + 4



Вы не можете начинать темы
Вы не можете отвечать на сообщения
Вы не можете редактировать свои сообщения
Вы не можете удалять свои сообщения
Вы не можете голосовать в опросах
Вы не можете прикреплять файлы к сообщениям
Вы не можете скачивать файлы