Пропавшая грамота (Борис Ивченко) [1972, СССР, фэнтези, комедия, DVDRip]

Ответить на тему
 
Автор Сообщение

user ®

Стаж: 7 лет 7 месяцев

Сообщений: 20008

Пост Пост: #1 от 17-Сен-2014 13:00

[Цитировать]

Пропавшая грамота- Страна: СССР
Жанр: фэнтези, комедия
Год выпуска: 1972
Продолжительность: 01:14:11-Зв. дорожка 1: русская
Оригинальная звуковая дорожка: украинская
Субтитры: нет
Режиссер: Борис Ивченко
В ролях: Иван Миколайчук, Лидия Вакула (Белозёрова), Фёдор Стригун, Земфира Цахилова, Михаил Голубович (озвучил Павел Морозенко), Владимир Глухой, Василий Симчич, Анатолий Барчук, Владимир Шакало, Дмитрий Капка, Владимир Алексеенко, Галина Долгозвяга, Наталия Гебдовская, Нила Крюкова, Ирина Кихтёва, Валерий Панарин, Вова Кикоть, Василий Хорошко, Анатолий Переверзев, Анатолий Юрченко, Н. Коковкин, Ю. Хаджиев, Мария Капнист, Светлана Могилёва, Нина Матвиенко, Мария Миколайчук-Описание: Героическая народная комедия, где с лукавой усмешкой задорным юмором показан полный приключения путь казака Василия и запорожца Андрея с гетманской грамотой в Петербург к царице и их благополучное возвращение в родную Диканьку.- -Качество: DVDRip | [url=http://***/forum/viewtopic.php?t=4824891]DVD9[/url] | Sample
Контейнер: AVI
Видео: XviD, 720x544 (4:3), 2210 kbps, 25 fps, 0,226 bpp
Аудио №1: AC3 / 5.1 / 48 kHz / 384 kbps / 16 bit || rus
Аудио №2: AC3 / 2.0 / 48 kHz / 192 kbps / 16 bit || ukr-Об исходнике писал(а):
Данное издание позиционируется как «полное цифровое восстановление фильма». Плёнка не просто сканирована кадр-в-кадр, как это обычно бывает, когда 24 кинематографических кадра в секунду укладывают в 25 видеокадров в секунду, в результате чего длительность фильма уменьшается примерно на 4%, а тональность звука на столько же процентов повышается. Был сделан новый, причём дорогой трансфер с сохранением правильной длительности и тональности звука.
Сравнение
С этим [url=http://***/forum/viewtopic.php?t=4649250]http://***/forum/viewtopic.php?t=4649250[/url]
Получилось такое http://screenshotcomparison.com/comparison/91881/picture:2
Сравнительные сэмплы мой и Lenape
Скриншоты Media Info
General
Complete name : E:\my_rip\Propavshaya.gramota.1976.DVDRip.by.Дядя_Лёша.avi
Format : AVI
Format/Info : Audio Video Interleave
File size : 1.45 GiB
Duration : 1h 14mn
Overall bit rate : 2 801 Kbps
Writing application : VirtualDubMod 1.5.10.3 | www.virtualdub-fr.org || (build 2550/release)
Writing library : VirtualDubMod build 2550/release
Video
ID : 0
Format : MPEG-4 Visual
Format profile : Advanced Simple@L5
Format settings, BVOP : 1
Format settings, QPel : No
Format settings, GMC : No warppoints
Format settings, Matrix : Custom
Codec ID : XVID
Codec ID/Hint : XviD
Duration : 1h 14mn
Bit rate : 2 210 Kbps
Width : 720 pixels
Height : 544 pixels
Display aspect ratio : 4:3
Frame rate : 25.000 fps
Color space : YUV
Chroma subsampling : 4:2:0
Bit depth : 8 bits
Scan type : Progressive
Compression mode : Lossy
Bits/(Pixel*Frame) : 0.226
Stream size : 1.15 GiB (79%)
Writing library : XviD 73
Audio #1
ID : 1
Format : AC-3
Format/Info : Audio Coding 3
Mode extension : CM (complete main)
Codec ID : 2000
Duration : 1h 14mn
Bit rate mode : Constant
Bit rate : 384 Kbps
Channel(s) : 6 channels
Channel positions : Front: L C R, Side: L R, LFE
Sampling rate : 48.0 KHz
Bit depth : 16 bits
Compression mode : Lossy
Delay relative to video : 16ms
Stream size : 204 MiB (14%)
Alignment : Split accross interleaves
Interleave, duration : 40 ms (1.00 video frame)
Interleave, preload duration : 500 ms
Audio #2
ID : 2
Format : AC-3
Format/Info : Audio Coding 3
Mode extension : CM (complete main)
Codec ID : 2000
Duration : 1h 14mn
Bit rate mode : Constant
Bit rate : 192 Kbps
Channel(s) : 2 channels
Channel positions : Front: L R
Sampling rate : 48.0 KHz
Bit depth : 16 bits
Compression mode : Lossy
Delay relative to video : 16ms
Stream size : 102 MiB (7%)
Alignment : Split accross interleaves
Interleave, duration : 40 ms (1.00 video frame)
Interleave, preload duration : 500 ms
Скачать

Скачать торрент!

Как скачивать? · Что такое торрент? · Рейтинг и ограничения

Сайт не распространяет и не хранит электронные версии произведений, а лишь предоставляет доступ к создаваемому пользователями каталогу ссылок на торрент-файлы, которые содержат только списки хеш-сумм

[Профиль] [ЛС]
Показать сообщения:    
Ответить на тему

Текущее время: Сегодня 03:07

Часовой пояс: GMT + 4



Вы не можете начинать темы
Вы не можете отвечать на сообщения
Вы не можете редактировать свои сообщения
Вы не можете удалять свои сообщения
Вы не можете голосовать в опросах
Вы не можете прикреплять файлы к сообщениям
Вы не можете скачивать файлы