Кенау / Kenau (Маартен Треёньет / Maarten Treurniet) [2014, Боевик, приключения, история, BDRip-AVC] AVO (А.Дольский) + Sub (Eng)

Ответить на тему
 
Автор Сообщение

user ®

Стаж: 7 лет 7 месяцев

Сообщений: 20008

Пост Пост: #1 от 16-Сен-2014 22:45

[Цитировать]

Кенау / Kenau- Страна: Нидерланды, Венгрия, Бельгия / Fu Works, I'm FILM, Prime Time
Жанр: Боевик, приключения, история
Год выпуска: 2014
Продолжительность: 01:52:24-Перевод: Авторский (одноголосый закадровый) [А.Дольский]
Cубтитры: английские
Формат субтитров: softsub (SRT)
Оригинальная аудиодорожка: нет-Режиссер: Маартен Треёньет / Maarten Treurniet
В ролях: Моник Хендрикс, Лиза Смит, Барри Атсма, Аттила Арпа, Салли Хармсен, Питер Ван ден Бегин, Йап Спийкерс, Саймон Нэйдер, Зольтан Папп
Описание: Фильм основан на реальных исторических событиях. 1572 год. Испания наиболее могущественная страна в мире. Католик Филлип Второй поверг Европу в священную войну. Принц Оранский возглавляет восстание. Зутен горит в огне. Перед Харлемом стоит сложный выбор. В борьбу против испанского завоевателя вступает Кенау. Её армия состоит только из женщин...-
Релиз от:
Автор рипа: potroks-Качество видео: BDRip-AVC [Kenau.2014.BDRemux.(1080p)]
Формат видео: MKV
Видео: х.264, 984x412 (2,40:1), 23,976 fps, 1412 kbps, 0.145 bit/pixel
Аудио: 48 kHz, AC3 Dolby Digital, 3/2 (L,C,R,l,r) + LFE ch, 448.00 kbps

MediaInfo
Общее
Уникальный идентификатор : 184984211607738536346337558629347456551 (0x8B2AA9C9ED780E0B9625345A47477627)
Полное имя : Kenau.2014.RUS.BDRip.x264.-HELLYWOOD.mkv
Формат : Matroska
Версия формата : Version 4 / Version 2
Размер файла : 1,46 Гбайт
Продолжительность : 1 ч. 52 м.
Общий поток : 1862 Кбит/сек
Название фильма : Kenau (2014) - HELLYWOOD
Дата кодирования : UTC 2014-09-08 07:12:56
Программа кодирования : mkvmerge v5.9.0 ('On The Loose') built on Dec 15 2012 16:39:58
Библиотека кодирования : libebml v1.3.0 + libmatroska v1.4.0
Видео
Идентификатор : 1
Формат : AVC
Формат/Информация : Advanced Video Codec
Профиль формата : High@L4.1
Параметр CABAC формата : Да
Параметр ReFrames формата : 12 кадров
Идентификатор кодека : V_MPEG4/ISO/AVC
Продолжительность : 1 ч. 52 м.
Битрейт : 1412 Кбит/сек
Ширина : 984 пикселя
Высота : 412 пикселей
Соотношение сторон : 2,40:1
Режим частоты кадров : Постоянный
Частота кадров : 23,976 кадра/сек
Цветовое пространство : YUV
Субдискретизация насыщенности : 4:2:0
Битовая глубина : 8 бит
Тип развёртки : Прогрессивная
Бит/(Пиксели*Кадры) : 0.145
Размер потока : 1,08 Гбайт (74%)
Заголовок : potroks
Библиотека кодирования : x264 core 130 r2273 b3065e6
Настройки программы : cabac=1 / ref=12 / deblock=1:-2:-2 / analyse=0x3:0x133 / me=umh / subme=11 / psy=1 / psy_rd=1.05:0.00 / mixed_ref=1 / me_range=48 / chroma_me=1 / trellis=2 / 8x8dct=1 / cqm=0 / deadzone=21,11 / fast_pskip=0 / chroma_qp_offset=-2 / threads=9 / lookahead_threads=2 / sliced_threads=0 / nr=0 / decimate=0 / interlaced=0 / bluray_compat=0 / constrained_intra=0 / bframes=13 / b_pyramid=2 / b_adapt=2 / b_bias=0 / direct=3 / weightb=1 / open_gop=0 / weightp=2 / keyint=250 / keyint_min=23 / scenecut=40 / intra_refresh=0 / rc_lookahead=140 / rc=2pass / mbtree=1 / bitrate=1412 / ratetol=1.0 / qcomp=0.70 / qpmin=0 / qpmax=69 / qpstep=4 / cplxblur=20.0 / qblur=0.5 / vbv_maxrate=50000 / vbv_bufsize=62500 / nal_hrd=none / ip_ratio=1.35 / aq=2:0.70
Язык : English
Default : Да
Forced : Нет
Аудио
Идентификатор : 2
Формат : AC-3
Формат/Информация : Audio Coding 3
Расширение режима : CM (complete main)
Параметр Endianness формата : Big
Идентификатор кодека : A_AC3
Продолжительность : 1 ч. 52 м.
Вид битрейта : Постоянный
Битрейт : 448 Кбит/сек
Каналы : 6 каналов
Расположение каналов : Front: L C R, Side: L R, LFE
Частота : 48,0 КГц
Битовая глубина : 16 бит
Метод сжатия : С потерями
Размер потока : 360 Мбайт (24%)
Заголовок : AVO | DD 5.1 @ 448 kbps - А.Дольский
Язык : Russian
Default : Да
Forced : Нет
Текст
Идентификатор : 3
Формат : UTF-8
Идентификатор кодека : S_TEXT/UTF8
Идентификатор кодека/Информация : UTF-8 Plain Text
Язык : English
Default : Нет
Forced : Нет
Меню
00:00:00.000 : nl:Chapter 01
00:07:41.169 : nl:Chapter 02
00:16:27.945 : nl:Chapter 03
00:27:17.052 : nl:Chapter 04
00:34:53.257 : nl:Chapter 05
00:41:32.531 : nl:Chapter 06
00:51:10.942 : nl:Chapter 07
00:59:51.254 : nl:Chapter 08
01:06:57.930 : nl:Chapter 09
01:15:40.410 : nl:Chapter 10
01:28:10.118 : nl:Chapter 11
01:36:42.046 : nl:Chapter 12
01:46:42.687 : nl:Chapter 13
Скриншоты
Скачать

Скачать торрент!

Как скачивать? · Что такое торрент? · Рейтинг и ограничения

Сайт не распространяет и не хранит электронные версии произведений, а лишь предоставляет доступ к создаваемому пользователями каталогу ссылок на торрент-файлы, которые содержат только списки хеш-сумм

[Профиль] [ЛС]
Показать сообщения:    
Ответить на тему

Текущее время: Сегодня 14:34

Часовой пояс: GMT + 4



Вы не можете начинать темы
Вы не можете отвечать на сообщения
Вы не можете редактировать свои сообщения
Вы не можете удалять свои сообщения
Вы не можете голосовать в опросах
Вы не можете прикреплять файлы к сообщениям
Вы не можете скачивать файлы