Думай, как мужчина 2 / Think Like a Man Too (Тим Стори / Tim Story) [2014, США, комедия, HDRip] MVO

Ответить на тему
 
Автор Сообщение

user ®

Стаж: 7 лет 7 месяцев

Сообщений: 20008

Пост Пост: #1 от 16-Сен-2014 19:35

[Цитировать]

Думай, как мужчина 2Think Like a Man Too- Страна: США
Жанр: комедия
Год выпуска: 2014
Продолжительность: 01:45:50-Перевод: Профессиональный (многоголосый, закадровый)
Субтитры: нет
Режиссер: Тим Стори / Tim Story
В ролях: Адам Броди, Майкл Или, Джерри Феррара, Миган Гуд, Кевин Харт, Реджина Холл, Деннис Хейсбёрт, Тараджи П. Хенсон, Терренс Дженкинс, Дженифер Льюис, Романи Малко-Описание: Пары готовятся к свадьбе в Лас-Вегасе. Они планируют романтический уик-энд, но все идет наперекосяк. Различные злоключения приводят к компрометирующим ситуациям, которые ставят большое событие под угрозу срыва.-
MPAA: PG-13 - Детям до 13 лет просмотр не желателен-Качество: HDRip | BDRip 720p | sample
Контейнер: AVI
Видео: XviD, 688x288 (2.40:1), 848 kbps, 23,976 fps, 0,179 bpp
Аудио: MP3 / 2.0 / 48 kHz / 128 kbps /-Скриншоты Media Info
General
Complete name : E:\my_rip\Dumai.kak.muzik.2014.HDRip.by.Дядя_Лёша.avi
Format : AVI
Format/Info : Audio Video Interleave
File size : 746 MiB
Duration : 1h 45mn
Overall bit rate : 986 Kbps
Writing application : VirtualDubMod 1.5.10.3 | www.virtualdub-fr.org || (build 2550/release)
Writing library : VirtualDubMod build 2550/release
Video
ID : 0
Format : MPEG-4 Visual
Format profile : Advanced Simple@L5
Format settings, BVOP : 1
Format settings, QPel : No
Format settings, GMC : No warppoints
Format settings, Matrix : Custom
Codec ID : XVID
Codec ID/Hint : XviD
Duration : 1h 45mn
Bit rate : 849 Kbps
Width : 688 pixels
Height : 288 pixels
Display aspect ratio : 2.40:1
Frame rate : 23.976 fps
Color space : YUV
Chroma subsampling : 4:2:0
Bit depth : 8 bits
Scan type : Progressive
Compression mode : Lossy
Bits/(Pixel*Frame) : 0.179
Stream size : 642 MiB (86%)
Writing library : XviD 73
Audio
ID : 1
Format : MPEG Audio
Format version : Version 1
Format profile : Layer 3
Codec ID : 55
Codec ID/Hint : MP3
Duration : 1h 45mn
Bit rate mode : Constant
Bit rate : 128 Kbps
Channel(s) : 2 channels
Sampling rate : 48.0 KHz
Compression mode : Lossy
Stream size : 96.9 MiB (13%)
Alignment : Aligned on interleaves
Interleave, duration : 42 ms (1.00 video frame)
Interleave, preload duration : 504 ms
Writing library : LAME3.99r
Encoding settings : -m s -V 4 -q 2 -lowpass 17 -b 128
Скачать

Скачать торрент!

Как скачивать? · Что такое торрент? · Рейтинг и ограничения

Сайт не распространяет и не хранит электронные версии произведений, а лишь предоставляет доступ к создаваемому пользователями каталогу ссылок на торрент-файлы, которые содержат только списки хеш-сумм

[Профиль] [ЛС]
Показать сообщения:    
Ответить на тему

Текущее время: Сегодня 16:39

Часовой пояс: GMT + 4



Вы не можете начинать темы
Вы не можете отвечать на сообщения
Вы не можете редактировать свои сообщения
Вы не можете удалять свои сообщения
Вы не можете голосовать в опросах
Вы не можете прикреплять файлы к сообщениям
Вы не можете скачивать файлы