Виноваты звезды / The Fault in Our Stars (Джош Бун / Josh Boone) [2014, США, Драма, мелодрама, BDRip-AVC] [Расширенная версия / Extended Cut] Dub + Sub Rus, Eng + Original Eng

Ответить на тему
 
Автор Сообщение

user ®

Стаж: 7 лет 7 месяцев

Сообщений: 20008

Пост Пост: #1 от 16-Сен-2014 09:55

[Цитировать]

Виноваты звездыThe Fault in Our StarsРасширенная версия / Extended Cut«История, покорившая миллионы женских сердец»
Страна: США
Жанр: Драма, мелодрама
Год выпуска: 2014
Продолжительность: 02:12:54
Перевод: Профессиональный (дублированный) [Лицензия BD CFE]
Cубтитры: русские,английские
Оригинальная аудиодорожка: английский
Режиссер: Джош Бун / Josh Boone
В ролях: Шейлин Вудли, Энсел Элгорт, Лора Дерн, Сэм Трэммелл, Нат Вулф, Уиллем Дефо, Лотте Вербеек, Ана Дела Крус, Рэнди Ковиц, Тони Саладна.
Описание: Хэйзел больна раком. Несмотря на то, что болезнь временно отступила, девушка не чувствует ни капли радости. Она ходит в группу поддержки, где однажды знакомится с Огастусом Уотерсом и моментально влюбляется в него. Огастус и Хэйзел отправляются в полное страсти и жизни путешествие, которое лишний раз покажет им, что весь смысл жизни можно найти в любом ее отрезке.
Доп. информация:

Качество видео: BDRip-AVC | Виноваты звезды / The Fault in Our Stars(2014) 1080p BD-Remux| HD club
Формат видео: MKV
Автор рипа:potroks
Видео: х.264, 1060x572 (1,85:1), 23,976 fps, 2243 kbps, 0.154 bit/pixel
Аудио: 48 kHz, AC3 Dolby Digital, 3/2 (L,C,R,l,r) + LFE ch, 448.00 kbps
Аудио 2: 48 kHz, AC3 Dolby Digital, 3/2 (L,C,R,l,r) + LFE ch, 448.00 kbps
Формат субтитров: softsub (SRT)
Доп. информация о субтитрах: отключаемые
MediaInfo
General
Unique ID : 242725400367113177935027824176412451635 (0xB69B3630DC17912692868492DB176333)
Complete name : D:\Фильмы\Виноваты звезды\Vinovaty.Zviozdy.2014.Extended.BDRip.x264.mkv
Format : Matroska
Format version : Version 4 / Version 2
File size : 2.92 GiB
Duration : 2h 12mn
Overall bit rate : 3 141 Kbps
Movie name : The Fault in Our Stars (2014)
Encoded date : UTC 2014-09-13 10:54:57
Writing application : mkvmerge v5.9.0 ('On The Loose') built on Dec 15 2012 16:39:58
Writing library : libebml v1.3.0 + libmatroska v1.4.0
Video
ID : 1
Format : AVC
Format/Info : Advanced Video Codec
Format profile : High@L4.1
Format settings, CABAC : Yes
Format settings, ReFrames : 10 frames
Codec ID : V_MPEG4/ISO/AVC
Duration : 2h 12mn
Bit rate : 2 243 Kbps
Width : 1 060 pixels
Height : 572 pixels
Display aspect ratio : 1.85:1
Frame rate mode : Constant
Frame rate : 23.976 fps
Color space : YUV
Chroma subsampling : 4:2:0
Bit depth : 8 bits
Scan type : Progressive
Bits/(Pixel*Frame) : 0.154
Stream size : 2.03 GiB (69%)
Title : potroks
Writing library : x264 core 130 r2273 b3065e6
Encoding settings : cabac=1 / ref=10 / deblock=1:-2:-2 / analyse=0x3:0x133 / me=umh / subme=11 / psy=1 / psy_rd=1.02:0.00 / mixed_ref=1 / me_range=48 / chroma_me=1 / trellis=2 / 8x8dct=1 / cqm=0 / deadzone=21,11 / fast_pskip=0 / chroma_qp_offset=-2 / threads=9 / lookahead_threads=2 / sliced_threads=0 / nr=0 / decimate=0 / interlaced=0 / bluray_compat=0 / constrained_intra=0 / bframes=11 / b_pyramid=2 / b_adapt=2 / b_bias=0 / direct=3 / weightb=1 / open_gop=0 / weightp=2 / keyint=250 / keyint_min=23 / scenecut=40 / intra_refresh=0 / rc_lookahead=60 / rc=2pass / mbtree=0 / bitrate=2243 / ratetol=1.0 / qcomp=0.70 / qpmin=0 / qpmax=69 / qpstep=4 / cplxblur=20.0 / qblur=0.5 / vbv_maxrate=50000 / vbv_bufsize=62500 / nal_hrd=none / ip_ratio=1.35 / pb_ratio=1.25 / aq=1:0.80
Language : English
Default : Yes
Forced : No
Audio #1
ID : 2
Format : AC-3
Format/Info : Audio Coding 3
Mode extension : CM (complete main)
Format settings, Endianness : Big
Codec ID : A_AC3
Duration : 2h 12mn
Bit rate mode : Constant
Bit rate : 448 Kbps
Channel(s) : 6 channels
Channel positions : Front: L C R, Side: L R, LFE
Sampling rate : 48.0 KHz
Bit depth : 16 bits
Compression mode : Lossy
Stream size : 426 MiB (14%)
Title : Dub | DD 5.1 @ 448 kbps - Blu-Ray CEE
Language : Russian
Default : Yes
Forced : Yes
Audio #2
ID : 3
Format : AC-3
Format/Info : Audio Coding 3
Mode extension : CM (complete main)
Format settings, Endianness : Big
Codec ID : A_AC3
Duration : 2h 12mn
Bit rate mode : Constant
Bit rate : 448 Kbps
Channel(s) : 6 channels
Channel positions : Front: L C R, Side: L R, LFE
Sampling rate : 48.0 KHz
Bit depth : 16 bits
Compression mode : Lossy
Stream size : 426 MiB (14%)
Title : Original | DD 5.1 @ 448 kbps
Language : English
Default : No
Forced : No
Text #1
ID : 4
Format : UTF-8
Codec ID : S_TEXT/UTF8
Codec ID/Info : UTF-8 Plain Text
Language : Russian
Default : No
Forced : No
Text #2
ID : 5
Format : UTF-8
Codec ID : S_TEXT/UTF8
Codec ID/Info : UTF-8 Plain Text
Language : English
Default : No
Forced : No
Text #3
ID : 6
Format : UTF-8
Codec ID : S_TEXT/UTF8
Codec ID/Info : UTF-8 Plain Text
Title : SDH
Language : English
Default : No
Forced : No
Menu
00:00:00.000 : en:(01)00:00:00:000
00:02:34.529 : en:(02)00:02:34:529
00:06:25.593 : en:(03)00:06:25:593
00:13:01.906 : en:(04)00:13:01:906
00:15:07.615 : en:(05)00:15:07:615
00:18:12.591 : en:(06)00:18:12:591
00:21:05.681 : en:(07)00:21:05:681
00:24:59.789 : en:(08)00:24:59:789
00:28:35.380 : en:(09)00:28:35:380
00:31:30.805 : en:(10)00:31:30:805
00:38:12.873 : en:(11)00:38:12:873
00:41:51.217 : en:(12)00:41:51:217
00:49:19.831 : en:(13)00:49:19:831
00:56:41.606 : en:(14)00:56:41:606
01:02:27.326 : en:(15)01:02:27:326
01:05:40.978 : en:(16)01:05:40:978
01:08:17.426 : en:(17)01:08:17:426
01:14:57.743 : en:(18)01:14:57:743
01:20:58.478 : en:(19)01:20:58:478
01:25:30.333 : en:(20)01:25:30:333
01:29:04.338 : en:(21)01:29:04:338
01:34:50.476 : en:(22)01:34:50:476
01:43:59.024 : en:(23)01:43:59:024
01:46:27.088 : en:(24)01:46:27:088
01:52:18.481 : en:(25)01:52:18:481
01:57:25.455 : en:(26)01:57:25:455
02:01:09.303 : en:(27)02:01:09:303
02:06:16.402 : en:(28)02:06:16:402
02:12:53.715 : en:(29)02:12:53:715
Скриншот c названием фильма Скриншоты
Скачать

Скачать торрент!

Как скачивать? · Что такое торрент? · Рейтинг и ограничения

Сайт не распространяет и не хранит электронные версии произведений, а лишь предоставляет доступ к создаваемому пользователями каталогу ссылок на торрент-файлы, которые содержат только списки хеш-сумм

[Профиль] [ЛС]
Показать сообщения:    
Ответить на тему

Текущее время: Сегодня 07:48

Часовой пояс: GMT + 4



Вы не можете начинать темы
Вы не можете отвечать на сообщения
Вы не можете редактировать свои сообщения
Вы не можете удалять свои сообщения
Вы не можете голосовать в опросах
Вы не можете прикреплять файлы к сообщениям
Вы не можете скачивать файлы