Отдать концы (Таисия Игуменцева) [2013, Россия, Драма, комедия, HDTV 1080i]

Ответить на тему
 
Автор Сообщение

user ®

Стаж: 7 лет 7 месяцев

Сообщений: 20008

Пост Пост: #1 от 16-Сен-2014 03:35

[Цитировать]

Отдать концы
Жанр: Драма, комедия
Год выпуска: 2013
Продолжительность: 01:36:35
Страна: Россия
Режиссёр: Таисия Игуменцева
В ролях: Сергей Аброскин, Максим Виторган, Ирина Денисова, Анна Рудь, Ёла Санько, Юрис Лауциньш, Алина Сергеева, Дмитрий Куличков
Описание: Добрая сказка о забавных обитателях одной маленькой деревушки на краю Земли. Поверив в то, что через сутки наступит конец света, каждый из них наконец-то отваживается сделать то, на что никогда не решался. Апокалипсис сдвигает их с привычных мест, но… так и не происходит. И приходится милым чудакам заново учиться любить, драться и выживать…
Сэмпл
Качество видео: HDTV 1080i
Формат видео: TS
Видео: 1920х1080 (16:9), 25 fps, AVC MPEG-4 (x264), High@L4.0 ~ 11 Мбит/с , 0.212 bit/pixe
Аудио: 48 kHz, АС3, 6 ch, 448 kbps avg
MediaInfo
Общее
Идентификатор : 1 (0x1)
Полное имя : D:\Video\Otdat.kontsy.2013.HDTV.(1080i).MediaClub.ts
Формат : MPEG-TS
Размер файла : 8,08 Гбайт
Продолжительность : 1 ч. 36 м.
Режим общего битрейта : Переменный
Общий поток : 12,0 Мбит/сек
Видео
Идентификатор : 3551 (0xDDF)
Идентификатор меню : 1 (0x1)
Формат : AVC
Формат/Информация : Advanced Video Codec
Профиль формата : Main@L4.0
Параметр CABAC формата : Да
Параметр ReFrames формата : 3 кадра
Идентификатор кодека : 27
Продолжительность : 1 ч. 36 м.
Битрейт : 11,0 Мбит/сек
Ширина : 1920 пикселей
Высота : 1080 пикселей
Соотношение сторон : 16:9
Частота кадров : 25,000 кадров/сек
Стандарт вещания : Component
Цветовое пространство : YUV
Субдискретизация насыщенности : 4:2:0
Битовая глубина : 8 бит
Тип развёртки : Чересстрочная
Порядок развёртки : Верхнее поле первое
Бит/(Пиксели*Кадры) : 0.212
Размер потока : 7,38 Гбайт (91%)
Основные цвета : BT.709
Характеристики трансфера : BT.709
Коэффициенты матрицы : BT.709
Аудио
Идентификатор : 3553 (0xDE1)
Идентификатор меню : 1 (0x1)
Формат : AC-3
Формат/Информация : Audio Coding 3
Расширение режима : CM (complete main)
Параметр Endianness формата : Big
Идентификатор кодека : 6
Продолжительность : 1 ч. 36 м.
Вид битрейта : Постоянный
Битрейт : 448 Кбит/сек
Каналы : 6 каналов
Расположение каналов : Front: L C R, Side: L R, LFE
Частота : 48,0 КГц
Битовая глубина : 16 бит
Метод сжатия : С потерями
Размер потока : 309 Мбайт (4%)
Язык : Russian
Скриншот c названием фильма Скриншоты
Скачать

Скачать торрент!

Как скачивать? · Что такое торрент? · Рейтинг и ограничения

Сайт не распространяет и не хранит электронные версии произведений, а лишь предоставляет доступ к создаваемому пользователями каталогу ссылок на торрент-файлы, которые содержат только списки хеш-сумм

[Профиль] [ЛС]
Показать сообщения:    
Ответить на тему

Текущее время: Сегодня 03:14

Часовой пояс: GMT + 4



Вы не можете начинать темы
Вы не можете отвечать на сообщения
Вы не можете редактировать свои сообщения
Вы не можете удалять свои сообщения
Вы не можете голосовать в опросах
Вы не можете прикреплять файлы к сообщениям
Вы не можете скачивать файлы