Школа выживания / The Survivors (Майкл Ритчи / Michael Ritchie) [1983, США, драма, комедия, WEB-DL 1080p] DVO + AVO (Михалев) + Original Eng + Sub Eng

Ответить на тему
 
Автор Сообщение

user ®

Стаж: 7 лет 7 месяцев

Сообщений: 20008

Пост Пост: #1 от 16-Сен-2014 03:35

[Цитировать]

Школа выживания / The Survivors Страна: США
Студия: Columbia Pictures Corporation, Rastar Films
Жанр: драма, комедия
Год выпуска: 1983
Продолжительность: 01:38:49
Перевод 1: Профессиональный (двухголосый, закадровый)
Перевод 2: Авторский (одноголосый закадровый) Алексей Михалев
Cубтитры: английские SRT
Оригинальная дорожка: Английский
Режиссер: Майкл Ритчи / Michael Ritchie
В ролях: Уолтер Мэттау, Робин Уильямс, Скипп Линч, Мэриэн Хэйли, Бернард Бэрроу, Кристен Вигард, Джозеф Карберри, Мег Манди, Джеймс Уэйнрайт, Энни МакЭнрой, Энн Питоняк, Мэрилин Купер, Джерри Рид
Описание: Дональда, начинающего продавца, грабит попугай босса в тот же самый день, когда сгорает заправка Сонни. Двое неудачников как раз пытались залить горе кофе, когда в кафе ворвался такой же невезучий бандит Джек.
Несчастным ничего не остается, как обезоружить грабителя, и неожиданно для себя они становятся знаменитыми героями. И тут им предстоит узнать цену выживания в этом сумасшедшем мире. Джек выходит на свободу и отправляется в погоню за Сонни и Дональдом.
В бегах от психопата-убийцы двое обаятельных неудачников должны пойти настоящую школу выживания.

Качество видео: WEB-DL 1080p
Формат видео: MKV
Видео кодек: H264
Аудио кодек: AC3
Видео: 1920x1072 (1,79:1) 25 fps, ~5603 kbps avg, 0.109 bit/pixel
Аудио 1: 48 kHz, AC3 Dolby Digital, 2/0 (L,R) ch, ~192 kbps Двухголоска
Аудио 2: 48 kHz, AC3 Dolby Digital, 2/0 (L,R) ch, ~192 kbps Михалев
Аудио 3: 48 kHz, AC3 Dolby Digital, 2/0 (L,R) ch, ~192 kbps Оригинал

MediaInfo
Полное имя : Школа выживания 1983.mkv
Формат : Matroska
Версия формата : Version 4 / Version 2
Размер файла : 4,35 Гбайт
Продолжительность : 1 ч. 38 м.
Режим общего битрейта : Переменный
Общий поток : 6305 Кбит/сек
Дата кодирования : UTC 2014-09-14 11:37:05
Программа кодирования : mkvmerge v7.1.0 ('Good Love') 64bit built on Jul 27 2014 13:06:55
Библиотека кодирования : libebml v1.3.0 + libmatroska v1.4.1
DURATION : 01:36:21.149000000
NUMBER_OF_FRAMES : 1239
NUMBER_OF_BYTES : 46506
_STATISTICS_WRITING_APP : mkvmerge v7.1.0 ('Good Love') 64bit built on Jul 27 2014 13:06:55
_STATISTICS_WRITING_DATE_UTC : 2014-09-14 11:37:05
_STATISTICS_TAGS : BPS DURATION NUMBER_OF_FRAMES NUMBER_OF_BYTES
Видео
Идентификатор : 1
Формат : AVC
Формат/Информация : Advanced Video Codec
Профиль формата : Main@L4.0
Параметр CABAC формата : Да
Параметр ReFrames формата : 2 кадра
Идентификатор кодека : V_MPEG4/ISO/AVC
Продолжительность : 1 ч. 38 м.
Вид битрейта : Переменный
Битрейт : 5603 Кбит/сек
Максимальный битрейт : 768 Кбит/сек
Ширина : 1920 пикселей
Высота : 1072 пикселя
Соотношение сторон : 16:9
Режим частоты кадров : Постоянный
Частота кадров : 25,000 кадров/сек
Цветовое пространство : YUV
Субдискретизация насыщенности : 4:2:0
Битовая глубина : 8 бит
Тип развёртки : Прогрессивная
Бит/(Пиксели*Кадры) : 0.109
Размер потока : 3,87 Гбайт (89%)
Default : Да
Forced : Нет
Аудио #1
Идентификатор : 2
Формат : AC-3
Формат/Информация : Audio Coding 3
Расширение режима : CM (complete main)
Параметр Endianness формата : Big
Идентификатор кодека : A_AC3
Продолжительность : 1 ч. 38 м.
Вид битрейта : Постоянный
Битрейт : 192 Кбит/сек
Каналы : 2 канала
Расположение каналов : Front: L R
Частота : 48,0 КГц
Битовая глубина : 16 бит
Метод сжатия : С потерями
Размер потока : 136 Мбайт (3%)
Заголовок : dvo
Язык : Russian
Default : Да
Forced : Нет
Аудио #2
Идентификатор : 3
Формат : AC-3
Формат/Информация : Audio Coding 3
Расширение режима : CM (complete main)
Параметр Endianness формата : Big
Идентификатор кодека : A_AC3
Продолжительность : 1 ч. 38 м.
Вид битрейта : Постоянный
Битрейт : 192 Кбит/сек
Каналы : 2 канала
Расположение каналов : Front: L R
Частота : 48,0 КГц
Битовая глубина : 16 бит
Метод сжатия : С потерями
Размер потока : 136 Мбайт (3%)
Заголовок : avo
Язык : Russian
Default : Нет
Forced : Нет
Аудио #3
Идентификатор : 4
Формат : AC-3
Формат/Информация : Audio Coding 3
Расширение режима : CM (complete main)
Параметр Endianness формата : Big
Идентификатор кодека : A_AC3
Продолжительность : 1 ч. 38 м.
Вид битрейта : Постоянный
Битрейт : 192 Кбит/сек
Каналы : 2 канала
Расположение каналов : Front: L R
Частота : 48,0 КГц
Битовая глубина : 16 бит
Метод сжатия : С потерями
Размер потока : 136 Мбайт (3%)
Заголовок : org
Язык : English
Default : Нет
Forced : Нет
Текст
Идентификатор : 5
Формат : UTF-8
Идентификатор кодека : S_TEXT/UTF8
Идентификатор кодека/Информация : UTF-8 Plain Text
Язык : English
Default : Нет
Forced : Нет
Скриншоты
Скачать

Скачать торрент!

Как скачивать? · Что такое торрент? · Рейтинг и ограничения

Сайт не распространяет и не хранит электронные версии произведений, а лишь предоставляет доступ к создаваемому пользователями каталогу ссылок на торрент-файлы, которые содержат только списки хеш-сумм

[Профиль] [ЛС]
Показать сообщения:    
Ответить на тему

Текущее время: Сегодня 18:32

Часовой пояс: GMT + 4



Вы не можете начинать темы
Вы не можете отвечать на сообщения
Вы не можете редактировать свои сообщения
Вы не можете удалять свои сообщения
Вы не можете голосовать в опросах
Вы не можете прикреплять файлы к сообщениям
Вы не можете скачивать файлы