Последняя любовь мистера Моргана / Mr. Morgan\'s Last Love (Сандра Неттельбек / Sandra Nettelbeck) [2013, Германия, Бельгия, США, Франция, Драма,Комедия, BDRip 720p] Dub + Sub Rus, Eng + Original Eng

Ответить на тему
 
Автор Сообщение

user ®

Стаж: 7 лет 7 месяцев

Сообщений: 20008

Пост Пост: #1 от 16-Сен-2014 03:35

[Цитировать]

Последняя любовь мистера Моргана / Mr. Morgan's Last Love
Страна: Германия, Бельгия, США, Франция
Жанр: Драма,Комедия
Год выпуска: 2013
Продолжительность: 01:55:48
Перевод: Профессиональный (дублированный)
Cубтитры: Русские, английские
Оригинальная аудиодорожка: английский
Режиссер: Сандра Неттельбек / Sandra Nettelbeck
В ролях: Майкл Кейн, Клеманс Поэзи, Джиллиан Андерсон, Джастин Кирк, Джейн Александр, Ричард Хоуп, Аликс Пуасон, Анн Альваро, Кристель Корнил, Янник Шуара
Описание: Пожилой американский профессор Мэтью Морган одиноко и замкнуто живет в Париже, преподает философию в университете. Жена, которую он очень любил, умерла несколько лет назад. Кажется, что всё главное в его жизни осталось в прошлом. Так и было, пока однажды в автобусе ему, едва не упавшему, не протянула руку помощи Полин, молодая, открытая, веселая парижанка…

Тип релиза: BDRip 720p
Контейнер: MKV
Видео: MPEG4 (AVC), 1280x696, 23.976 fps, 5244 kbit/s
Аудио: AC3, 48 kHz, 6 ch, 384 kbit/s [RUS]
Аудио 2: DTS, 48 kHz, 6 ch, 1510 kbit/s [ENG]
Формат субтитров: softsub (SRT)

MediaInfo
Format : Matroska
Format version : Version 4 / Version 2
File size : 5.78 GiB
Duration : 1h 55mn
Overall bit rate : 7 139 Kbps
Encoded date : UTC 2014-09-14 17:12:36
Writing application : mkvmerge v7.1.0 ('Good Love') 64bit built on Jul 27 2014 13:06:55
Writing library : libebml v1.3.0 + libmatroska v1.4.1
DURATION : 01:53:49.448000000
NUMBER_OF_FRAMES : 1173
NUMBER_OF_BYTES : 35366
_STATISTICS_WRITING_APP : mkvmerge v7.1.0 ('Good Love') 64bit built on Jul 27 2014 13:06:55
_STATISTICS_WRITING_DATE_UTC : 2014-09-14 17:12:36
_STATISTICS_TAGS : BPS DURATION NUMBER_OF_FRAMES NUMBER_OF_BYTES
Video
ID : 1
Format : AVC
Format/Info : Advanced Video Codec
Format profile : High@L4.1
Format settings, CABAC : Yes
Format settings, ReFrames : 5 frames
Codec ID : V_MPEG4/ISO/AVC
Duration : 1h 55mn
Bit rate : 5 244 Kbps
Width : 1 280 pixels
Height : 696 pixels
Display aspect ratio : 1.85:1
Frame rate mode : Constant
Frame rate : 23.976 fps
Color space : YUV
Chroma subsampling : 4:2:0
Bit depth : 8 bits
Scan type : Progressive
Bits/(Pixel*Frame) : 0.246
Stream size : 4.13 GiB (71%)
Writing library : x264 core 140 r2377 1ca7bb9
Encoding settings : cabac=1 / ref=5 / deblock=1:0:0 / analyse=0x3:0x133 / me=umh / subme=7 / psy=1 / psy_rd=1.00:0.00 / mixed_ref=1 / me_range=16 / chroma_me=1 / trellis=1 / 8x8dct=1 / cqm=0 / deadzone=21,11 / fast_pskip=0 / chroma_qp_offset=-2 / threads=16 / lookahead_threads=2 / sliced_threads=0 / nr=0 / decimate=1 / interlaced=0 / bluray_compat=0 / constrained_intra=0 / bframes=3 / b_pyramid=2 / b_adapt=1 / b_bias=0 / direct=1 / weightb=1 / open_gop=0 / weightp=2 / keyint=240 / keyint_min=23 / scenecut=40 / intra_refresh=0 / rc_lookahead=40 / rc=2pass / mbtree=1 / bitrate=5244 / ratetol=1.0 / qcomp=0.60 / qpmin=0 / qpmax=69 / qpstep=4 / cplxblur=20.0 / qblur=0.5 / ip_ratio=1.40 / aq=1:1.00
Language : English
Default : Yes
Forced : No
DURATION : 01:55:49.693000000
NUMBER_OF_FRAMES : 166626
NUMBER_OF_BYTES : 4554747890
_STATISTICS_WRITING_APP : mkvmerge v7.1.0 ('Good Love') 64bit built on Jul 27 2014 13:06:55
_STATISTICS_WRITING_DATE_UTC : 2014-09-14 17:12:36
_STATISTICS_TAGS : BPS DURATION NUMBER_OF_FRAMES NUMBER_OF_BYTES
Audio #1
ID : 2
Format : AC-3
Format/Info : Audio Coding 3
Mode extension : CM (complete main)
Format settings, Endianness : Big
Codec ID : A_AC3
Duration : 1h 55mn
Bit rate mode : Constant
Bit rate : 384 Kbps
Channel(s) : 6 channels
Channel positions : Front: L C R, Side: L R, LFE
Sampling rate : 48.0 KHz
Bit depth : 16 bits
Compression mode : Lossy
Stream size : 318 MiB (5%)
Title : Dub
Language : Russian
Default : Yes
Forced : No
Audio #2
ID : 3
Format : DTS
Format/Info : Digital Theater Systems
Codec ID : A_DTS
Duration : 1h 55mn
Bit rate mode : Constant
Bit rate : 1 510 Kbps
Channel(s) : 6 channels
Channel positions : Front: L C R, Side: L R, LFE
Sampling rate : 48.0 KHz
Bit depth : 24 bits
Compression mode : Lossy
Stream size : 1.22 GiB (21%)
Language : English
Default : No
Forced : No
Text #1
ID : 4
Format : UTF-8
Codec ID : S_TEXT/UTF8
Codec ID/Info : UTF-8 Plain Text
Language : Russian
Default : No
Forced : No
Text #2
ID : 5
Format : UTF-8
Codec ID : S_TEXT/UTF8
Codec ID/Info : UTF-8 Plain Text
Language : English
Default : No
Forced : No
Скриншоты Торрент файл заменён 14.09.14 - 21:18, добавлены Русские сабы.
Скачать

Скачать торрент!

Как скачивать? · Что такое торрент? · Рейтинг и ограничения

Сайт не распространяет и не хранит электронные версии произведений, а лишь предоставляет доступ к создаваемому пользователями каталогу ссылок на торрент-файлы, которые содержат только списки хеш-сумм

[Профиль] [ЛС]
Показать сообщения:    
Ответить на тему

Текущее время: Сегодня 22:15

Часовой пояс: GMT + 4



Вы не можете начинать темы
Вы не можете отвечать на сообщения
Вы не можете редактировать свои сообщения
Вы не можете удалять свои сообщения
Вы не можете голосовать в опросах
Вы не можете прикреплять файлы к сообщениям
Вы не можете скачивать файлы