Улица без конца (Игорь Добролюбов) [1972, Киноповесть, DVDScreener, AVC]

Ответить на тему
 
Автор Сообщение

user ®

Стаж: 7 лет 7 месяцев

Сообщений: 20008

Пост Пост: #1 от 16-Сен-2014 03:35

[Цитировать]

Улица без конца
Жанр: Киноповесть
Год выпуска: 1972
Продолжительность: 01:21:00
Режиссёр: Игорь Добролюбов
В ролях: Ирина Бразговка, Виктор Коршунов, Борис Кудрявцев, Елена Козелькова, Юрий Горобец, Александр Леньков, Тамара Логинова, Валентина Владимирова, Марианна Стриженова, Н. Маркина, Шавкат Газиев, Борис Гусаков, Ирина Гаркуша, Вера Ивлева, Владимир Носик, Янис Мелдерис, Паул Буткевич
Описание: Сразу после выпускного вечера Оля Русакова приезжает в тот город, где работал и трагически погиб ее отец. Много лет назад он мечтал построить город, а теперь она идет по улице, носящей его имя, улице без конца. Познакомившись с друзьями отца, Ольга как бы заново узнает его. Они рассказывают девушке, как ее отец хотел увидеть на месте палаточного городка большие дома и широкие улицы. Как он умел дружить и любить и как тосковал об Ольге, когда расстался с женой, не согласившейся поехать с ним. И о том, как погиб Сергей Русанов, первым бросившийся в разбушевавшуюся реку крепить понтоны.
Доп. информация: В создании фильма принимали участие жители города Новополоцка.
Фильм был задуман, снят и впервые показан в Новополоцке, центре белорусской нефтехимии. Задолго до начала работы сценаристы И. Герасимов, А. Леонтьев, режиссер И. Добролюбов приехали в этот юный город, родившейся на месте вековых лесов и топей, жили здесь, писали сценарий, впитывая неповторимые особенности своего времени. В энтузиазме и порыве первостроителей Новополоцка, в атмосфере дружбы и сердечности, сопутствующей жизни молодого города, авторам фильма удалось обнаружить и запечатлеть важные черты духовной биографии послевоенного поколения.
Награды:
Первая премия за лучшее исполнение женской роли - Е. Козельковой; за лучшую музыку-композитору Р. Хозаку; специальный диплом-актрисе И. Бразговке на VI Всесоюзном кинофестивале в Алма-Ате, 1973г.
Релиз:
Благодарности: за предоставленный DVDscr некто Андрей
За релиз: pmv
Сэмпл: http://multi-up.com/999267
Качество видео: DVDScreener
Формат видео: MKV
Видео: 720@896 х 384 (1.85:1), 25 fps, V_MPEG4/ISO/AVC ~2 100 kbps avg, 0.304 bit/pixel
Аудио: 48 kHz, A_AC3, 2 ch, ~384.00 kbps avg
MediaInfo
Complete name : Улица без конца (1972).mkv
Format : Matroska
Format version : Version 4 / Version 2
File size : 1.42 GiB
Duration : 1h 21mn
Overall bit rate : 2 485 Kbps
Encoded date : UTC 2014-09-15 13:15:27
Writing application : mkvmerge v7.2.0 ('On Every Street') 64bit built on Sep 13 2014 15:52:10
Writing library : libebml v1.3.0 + libmatroska v1.4.1
DURATION : 01:21:50.496000000
NUMBER_OF_FRAMES : 153453
NUMBER_OF_BYTES : 235703808
Video
ID : 1
Format : AVC
Format/Info : Advanced Video Codec
Format profile : High@L3.0
Format settings, CABAC : Yes
Format settings, ReFrames : 7 frames
Codec ID : V_MPEG4/ISO/AVC
Duration : 1h 21mn
Bit rate : 2 100 Kbps
Width : 720@896 pixels
Height : 384 pixels
Display aspect ratio : 2.35:1
Original display aspect ratio : 1.85:1
Frame rate mode : Constant
Frame rate : 25.000 fps
Color space : YUV
Chroma subsampling : 4:2:0
Bit depth : 8 bits
Scan type : Progressive
Bits/(Pixel*Frame) : 0.304
Stream size : 1.17 GiB (83%)
Writing library : x264 core 130 r2273 b3065e6
Encoding settings : cabac=1 / ref=7 / deblock=1:0:0 / analyse=0x3:0x113 / me=umh / subme=9 / psy=1 / psy_rd=1.00:0.00 / mixed_ref=1 / me_range=24 / chroma_me=1 / trellis=1 / 8x8dct=1 / cqm=0 / deadzone=21,11 / fast_pskip=1 / chroma_qp_offset=-2 / threads=18 / lookahead_threads=1 / sliced_threads=0 / nr=0 / decimate=1 / interlaced=0 / bluray_compat=0 / constrained_intra=0 / bframes=3 / b_pyramid=2 / b_adapt=1 / b_bias=0 / direct=1 / weightb=1 / open_gop=0 / weightp=2 / keyint=250 / keyint_min=25 / scenecut=40 / intra_refresh=0 / rc_lookahead=40 / rc=2pass / mbtree=1 / bitrate=2100 / ratetol=1.0 / qcomp=0.60 / qpmin=0 / qpmax=69 / qpstep=4 / cplxblur=20.0 / qblur=0.5 / ip_ratio=1.40 / aq=1:1.00
Default : Yes
Forced : No
Audio
ID : 2
Format : AC-3
Format/Info : Audio Coding 3
Mode extension : CM (complete main)
Format settings, Endianness : Big
Codec ID : A_AC3
Duration : 1h 21mn
Bit rate mode : Constant
Bit rate : 384 Kbps
Channel(s) : 2 channels
Channel positions : Front: L R
Sampling rate : 48.0 KHz
Bit depth : 16 bits
Compression mode : Lossy
Stream size : 225 MiB (15%)
Default : Yes
Forced : No
Скриншот c названием фильма Скриншоты
Скачать

Скачать торрент!

Как скачивать? · Что такое торрент? · Рейтинг и ограничения

Сайт не распространяет и не хранит электронные версии произведений, а лишь предоставляет доступ к создаваемому пользователями каталогу ссылок на торрент-файлы, которые содержат только списки хеш-сумм

[Профиль] [ЛС]
Показать сообщения:    
Ответить на тему

Текущее время: Сегодня 22:19

Часовой пояс: GMT + 4



Вы не можете начинать темы
Вы не можете отвечать на сообщения
Вы не можете редактировать свои сообщения
Вы не можете удалять свои сообщения
Вы не можете голосовать в опросах
Вы не можете прикреплять файлы к сообщениям
Вы не можете скачивать файлы