Кулинар 2 (Михаил Макаренко, Андрей Иванов) [2013, Боевик, криминал, WEB-DLRip]

Ответить на тему
 
Автор Сообщение

user ®

Стаж: 7 лет 7 месяцев

Сообщений: 20008

Пост Пост: #1 от 15-Сен-2014 10:10

[Цитировать]

Кулинар 2
Жанр: Боевик, криминал
Год выпуска: 2013
Продолжительность: 20 x ~ 00:48:00
Режиссёр: Михаил Макаренко, Андрей Иванов
В ролях: Игорь Ботвин, Сергей Гамов, Роман Агеев, Игорь Ламба, Светлана Цвиченко, Кирилл Капица, Андрей Аверков, Юрий Уткин, Ольга Белявская, Евгений Сиротин, Александр Глинский, Рафаил Эйвазов, Денис Кириллов, Владимир Космидайло, Анатолий Ильченко, Александр Мосолов, Геннадий Макоев, Сергей Шкарбан, Сергей Фёдоров (VI), Стэнли Красовицки, Наталья Голованова, Евгений Катаев, Диана Дезмари, Елена Купрашевич, Антон Успенский
Описание: Феликс Малинин живет в небольшом городке. Среди друзей и знакомых, он слывет неплохим парнем, замкнутым чудаком, постоянно пропадающим в командировках. У Феликса есть небольшое пристрастие – он очень любит готовить, а также У НЕГО ЕСТЬ секрет, о котором знают лишь несколько человек. На самом деле он – сотрудник оперативно-розыскного бюро МВД. Его оперативный псевдоним - «Кулинар». Его работа – оперативное внедрение и сбор информации обо всём, что может представлять интерес для правоохранительных органов. Способный мгновенно перевоплощаться и любыми способами получить нужную информацию, к каждому делу Феликс подходит с особым вкусом – будто готовит очередное блюдо, а каждой операции дает кулинарное название..
Производство: Россия, StarMedia при участии «Green-Film» по заказу РЕН ТВ

Сэмпл: http://multi-up.com/999152
Качество видео: WEB-DLRip
Формат видео: AVI
Видео: MPEG-4 AVC, ~ 2800 Кбит/с, 1920x1080
Аудио: AC3, 2 ch, 192 Кбит/с
MediaInfo
Общее
Уникальный идентификатор : 174002153635740572041712368009235478444 (0x82E79886D705EAFBA841D9BE745937AC)
Полное имя : Kulinar.2.x264.2013.WEB-DL.(1080p).Generalfilm\01.mkv
Формат : Matroska
Версия формата : Version 4 / Version 2
Размер файла : 1,00 Гбайт
Продолжительность : 48 м.
Общий поток : 2952 Кбит/сек
Дата кодирования : UTC 2013-12-04 07:58:54
Программа кодирования : mkvmerge v6.5.0 ('Isn't she lovely') built on Oct 20 2013 12:50:05
Библиотека кодирования : libebml v1.3.0 + libmatroska v1.4.1
Видео
Идентификатор : 1
Формат : AVC
Формат/Информация : Advanced Video Codec
Профиль формата : High@L4.0
Параметр CABAC формата : Да
Параметр ReFrames формата : 2 кадра
Идентификатор кодека : V_MPEG4/ISO/AVC
Продолжительность : 48 м.
Битрейт : 2701 Кбит/сек
Ширина : 1920 пикселей
Высота : 1080 пикселей
Соотношение сторон : 16:9
Режим частоты кадров : Постоянный
Частота кадров : 25,000 кадров/сек
Цветовое пространство : YUV
Субдискретизация насыщенности : 4:2:0
Битовая глубина : 8 бит
Тип развёртки : Прогрессивная
Бит/(Пиксели*Кадры) : 0.052
Размер потока : 940 Мбайт (92%)
Язык : Russian
Default : Да
Forced : Да
Аудио
Идентификатор : 2
Формат : AC-3
Формат/Информация : Audio Coding 3
Расширение режима : CM (complete main)
Параметр Endianness формата : Big
Идентификатор кодека : A_AC3
Продолжительность : 48 м.
Вид битрейта : Постоянный
Битрейт : 192 Кбит/сек
Каналы : 2 канала
Расположение каналов : Front: L R
Частота : 44,1 КГц
Битовая глубина : 16 бит
Метод сжатия : С потерями
Размер потока : 66,8 Мбайт (7%)
Язык : Russian
Default : Да
Forced : Да
Скриншот c названием фильма
1
Скриншоты
Скачать

Скачать торрент!

Как скачивать? · Что такое торрент? · Рейтинг и ограничения

Сайт не распространяет и не хранит электронные версии произведений, а лишь предоставляет доступ к создаваемому пользователями каталогу ссылок на торрент-файлы, которые содержат только списки хеш-сумм

[Профиль] [ЛС]
Показать сообщения:    
Ответить на тему

Текущее время: Сегодня 18:22

Часовой пояс: GMT + 4



Вы не можете начинать темы
Вы не можете отвечать на сообщения
Вы не можете редактировать свои сообщения
Вы не можете удалять свои сообщения
Вы не можете голосовать в опросах
Вы не можете прикреплять файлы к сообщениям
Вы не можете скачивать файлы