Мирный воин / Peaceful Warrior (Виктор Сальва / Victor Salva) [2006, Германия, США, драма, мелодрама, спорт, биография, WEB-DL 720p] MVO (ТВ3) + MVO (VSTeam Creative Group) + Sub Rus, Eng + Original Eng

Ответить на тему
 
Автор Сообщение

user ®

Стаж: 7 лет 7 месяцев

Сообщений: 20008

Пост Пост: #1 от 15-Сен-2014 07:00

[Цитировать]

Мирный воин / Peaceful Warrior- -Страна: Германия, США
Студия: DEJ Productions, Sobini Films, Inferno Distribution
Жанр: драма, мелодрама, спорт, биография
Год выпуска: 2006
Продолжительность: 02:00:51-Перевод 1: Профессиональный (многоголосый закадровый) ТВ3
Перевод 2: Профессиональный (многоголосый закадровый) VSTeam Creative Group
Cубтитры: русские, английские
Оригинальная аудиодорожка: английский-Режиссер: Виктор Сальва / Victor Salva
В ролях: Скотт Мехловиц, Ник Нолти, Эми Смарт, Тим ДиКей, Эштон Холмс, Пол Уэсли, Б.Дж. Бритт, Агнес Бракнер, Том Тарантини, Беатрис Розен-Описание: Дэн Миллмен — талантливый гимнаст колледжа, мечтающий о выступлении на Олимпийских играх. У него всё есть: награды, друзья по команде, быстрые мотоциклы, девушки и бесшабашные вечеринки.
Мир Дэна переворачивается с ног на голову, когда он встречает загадочного незнакомца по имени Сократ, у которого достаточно возможностей, чтоб открыть новый мир силы и понимания. После серьёзной травмы, с помощью Сократа и эфемерной молодой девушки по имени Джой, Ден понимает, что ему много чему ещё придется научиться…-Кинопоиск: 7.85/10 (18 440)
IMDb: 7.30/10 (15 931)-Сэмпл-Исходная аудиодорожка ТВ3 взята из [url=http://***/forum/viewtopic.php?t=3242931]этой раздачи[/url], спасибо SnDamil
Исходная аудиодорожка VSTeam Creative Group взята из [url=http://***/forum/viewtopic.php?t=748820]этой раздачи[/url], спасибо vsteam (перетяжку PAL→NTSC делал через eac3to)
За субтитры спасибо v5485268-WEB-DL 720p куплен за счет личных средств.-[url=http://***/forum/tracker.php?nm=Peaceful%20Warrior]Ссылка на альтернативные и предыдущие раздачи[/url]-Тип релиза: WEB-DL 720p
Контейнер: MKV
Видео: 1280x538, 2,40:1, 4129 kbps, 23.976 fps
Аудио 1: AC3, 192 Kbps, 2 channels, 48.0 KHz ТВ3
Аудио 2: AC3, 192 Kbps, 2 channels, 48.0 KHz VSTeam Creative Group
Аудио 3: AC3, 384 Kbps, 6 channels, 48.0 KHz English
Формат субтитров: softsub (SRT)
MediaInfo
Полное имя : Peaceful.Warrior.WEB-DL.720p.MVOx2.mkv
Формат : Matroska
Версия формата : Version 4 / Version 2
Размер файла : 4,22 Гбайт
Продолжительность : 2 ч. 0 м.
Общий поток : 4996 Кбит/сек
Дата кодирования : UTC 2014-09-13 11:17:44
Программа кодирования : mkvmerge v7.1.0 ('Good Love') 64bit built on Jul 27 2014 13:06:55
Библиотека кодирования : libebml v1.3.0 + libmatroska v1.4.1
DURATION : 02:00:51.648000000
NUMBER_OF_FRAMES : 226614
NUMBER_OF_BYTES : 174039552
_STATISTICS_WRITING_APP : mkvmerge v7.1.0 ('Good Love') 64bit built on Jul 27 2014 13:06:55
_STATISTICS_WRITING_DATE_UTC : 2014-09-13 11:17:44
_STATISTICS_TAGS : BPS DURATION NUMBER_OF_FRAMES NUMBER_OF_BYTES
Видео
Идентификатор : 1
Формат : AVC
Формат/Информация : Advanced Video Codec
Профиль формата : Main@L3.1
Параметр CABAC формата : Нет
Параметр ReFrames формата : 2 кадра
Идентификатор кодека : V_MPEG4/ISO/AVC
Продолжительность : 2 ч. 0 м.
Битрейт : 4129 Кбит/сек
Ширина : 1280 пикселей
Высота : 538 пикселей
Соотношение сторон : 2,40:1
Режим частоты кадров : Постоянный
Частота кадров : 23,976 кадра/сек
Цветовое пространство : YUV
Субдискретизация насыщенности : 4:2:0
Битовая глубина : 8 бит
Тип развёртки : Прогрессивная
Бит/(Пиксели*Кадры) : 0.250
Размер потока : 3,49 Гбайт (83%)
Язык : English
Default : Да
Forced : Нет
Основные цвета : BT.709
Характеристики трансфера : BT.709
Коэффициенты матрицы : BT.709
Аудио #1
Идентификатор : 2
Формат : AC-3
Формат/Информация : Audio Coding 3
Расширение режима : CM (complete main)
Параметр Endianness формата : Big
Идентификатор кодека : A_AC3
Продолжительность : 2 ч. 0 м.
Вид битрейта : Постоянный
Битрейт : 192 Кбит/сек
Каналы : 2 канала
Расположение каналов : Front: L R
Частота : 48,0 КГц
Битовая глубина : 16 бит
Метод сжатия : С потерями
Размер потока : 166 Мбайт (4%)
Заголовок : MVO TV3
Язык : Russian
Default : Да
Forced : Нет
Аудио #2
Идентификатор : 3
Формат : AC-3
Формат/Информация : Audio Coding 3
Расширение режима : CM (complete main)
Параметр Endianness формата : Big
Идентификатор кодека : A_AC3
Продолжительность : 2 ч. 0 м.
Вид битрейта : Постоянный
Битрейт : 192 Кбит/сек
Каналы : 2 канала
Расположение каналов : Front: L R
Частота : 48,0 КГц
Битовая глубина : 16 бит
Метод сжатия : С потерями
Размер потока : 166 Мбайт (4%)
Заголовок : MVO VSTeam Creative Group
Язык : Russian
Default : Нет
Forced : Нет
Аудио #3
Идентификатор : 4
Формат : AC-3
Формат/Информация : Audio Coding 3
Расширение режима : CM (complete main)
Параметр Endianness формата : Big
Идентификатор кодека : A_AC3
Продолжительность : 2 ч. 0 м.
Вид битрейта : Постоянный
Битрейт : 384 Кбит/сек
Каналы : 6 каналов
Расположение каналов : Front: L C R, Side: L R, LFE
Частота : 48,0 КГц
Битовая глубина : 16 бит
Метод сжатия : С потерями
Размер потока : 332 Мбайт (8%)
Заголовок : English
Язык : English
Default : Нет
Forced : Нет
Меню
00:00:00.000 : en:Just a Dream (Main Titles)
00:04:54.000 : en:Getting Some Air
00:07:29.000 : en:Impossible
00:10:33.000 : en:Tell Me How You Did It
00:14:35.000 : en:Old News
00:17:39.000 : en:A Real Warrior
00:25:35.000 : en:Bad Fall
00:30:32.000 : en:Take Out the Trash
00:37:29.000 : en:View from Above
00:44:50.000 : en:Intense Training
00:53:05.000 : en:Shattered
00:57:27.000 : en:The Healing Power of Touch
01:04:00.000 : en:Letting Go
01:10:20.000 : en:Insight Worth Sharing
01:17:13.000 : en:Responsible for Your Actions
01:24:17.000 : en:A Higher Purpose
01:27:22.000 : en:Olympic Committee Petition
01:38:09.000 : en:The Journey
01:46:34.000 : en:Here in This Moment
01:54:45.000 : en:End Titles
Скриншоты История обновления раздачи
15.09 добавлены русские и английские субтитры. Семпл обновлен
Может кто поделиться русскими субтитрами и лицензионной русской аудиодорожкой с русского DVD издания фильма, выпущенного компанией Вольга в 2010 году?
Хотелось бы их добавить в данный релиз. У кого имеется данный диск прошу написать мне в [url=http://pm.***/forum/privmsg.php?mode=post&u=15464245]ЛС[/url].
Скачать

Скачать торрент!

Как скачивать? · Что такое торрент? · Рейтинг и ограничения

Сайт не распространяет и не хранит электронные версии произведений, а лишь предоставляет доступ к создаваемому пользователями каталогу ссылок на торрент-файлы, которые содержат только списки хеш-сумм

[Профиль] [ЛС]
Показать сообщения:    
Ответить на тему

Текущее время: Сегодня 13:49

Часовой пояс: GMT + 4



Вы не можете начинать темы
Вы не можете отвечать на сообщения
Вы не можете редактировать свои сообщения
Вы не можете удалять свои сообщения
Вы не можете голосовать в опросах
Вы не можете прикреплять файлы к сообщениям
Вы не можете скачивать файлы