Филадельфийский эксперимент / Секретный эксперимент / The Philadelphia Experiment (Стюарт Рэффилл / Stewart Raffill) [1984, США, фантастика, BDRip 720p] MVO + MVO (Варус-Видео) + Dub (Ленфильм) + AVO (Михалев) + Sub Rus, Eng + 2xUkr + Original Eng

Ответить на тему
 
Автор Сообщение

user ®

Стаж: 7 лет 7 месяцев

Сообщений: 20008

Пост Пост: #1 от 14-Сен-2014 23:50

[Цитировать]

Филадельфийский эксперимент / Эксперимент "Филадельфия" / Секретный эксперимент / The Philadelphia Experiment
Страна: США
Жанр: фантастика, приключения
Год выпуска: 1984
Продолжительность: 01:41:11
-
Перевод 1: Профессиональный (многоголосый закадровый) R5
Перевод 2: Профессиональный (многоголосый закадровый) Варус-Видео
Перевод 3: Профессиональный (дублированный) Ленфильм со вставками MVO (Варус-Видео)
Перевод 4: Авторский (одноголосый закадровый) Алексей Михалев
Cубтитры: русские и английские (полные)
Оригинальная аудиодорожка: английский
-
Режиссер: Стюарт Рэффилл / Stewart Raffill
В ролях: Майкл Паре, Нэнси Аллен, Эрик Кристмас, Бобби Ди Чикко, Луиз Лэтэм, Кин Холлидэй, Джо Дорси, Майкл Карри, Стивен Тоболовски, Гэри Брокетт
-
Описание: Филадельфия, октябрь 1943 года. Испытывается оборудование, которое делает американские военные корабли невидимыми для радаров противника. В ходе последнего из таких экспериментов исчез целый военный корабль. Кто-то из моряков, находившихся на борту, погиб, кто-то сильно пострадал, кто-то чудом спасся, а кто-то наверняка не поверил собственным глазам. Два моряка, Дэвид Хердег и Джим Паркер, исчезли. Никто в этот момент даже не подозревал, что два простых американских парня перенеслись во времени и пространстве и оказались в 1984 году.
-

-
Сэмпл: https://www.sendspace.com/file/nrm5kl
-
Тип релиза: BDRip 720p
Контейнер: MKV
Видео: 1280x720p (16:9), 23.976 fps, 8 500 Kbps
Аудио 1: русский / AC3 / 5.1 / 48 kHz / 384 kbps / 16 bit || MVO
Аудио 2: русский / AC3 / 2.0 / 48 kHz / 192 kbps / 16 bit || MVO (Варус-Видео)
Аудио 3: русский / AC3 / 2.0 / 48 kHz / 192 kbps / 16 bit || DUB + MVO (Варус-Видео)
Аудио 4: русский / AC3 / 5.1 / 48 kHz / 384 kbps / 16 bit || AVO
Аудио 5: украинский / AC3 / 2.0 / 48 kHz / 192 kbps / 16 bit || №1 (НТН)
Аудио 6: украинский / AC3 / 2.0 / 48 kHz / 192 kbps / 16 bit || №2 (1+1)
Аудио 7: английский / AC3 / 5.1 / 48 kHz / 448 kbps / 16 bit || ENG
Формат субтитров: softsub (SRT)
Главы: есть
Доп. информация
рип от MediaClub, добавлены английские субтитры из сети и 2-е украинские дорожки от HQCLUB. Авторам спасибо.
MediaInfo
General
Unique ID : 193104951562843474288801078403334541616 (0x9146A92E47C79A989FFD5B9503BE1130)
Complete name : C:\Users\ALEX\Downloads\Фильмы\HD\The Philadelphia Experiment.1984.BDRip.720p.4xRus.2xUkr.Eng.Subs.Chpt.mkv
Format : Matroska
Format version : Version 4 / Version 2
File size : 7.41 GiB
Duration : 1h 41mn
Overall bit rate : 10.5 Mbps
Encoded date : UTC 2014-09-12 08:11:25
Writing application : mkvmerge v6.6.0 ('The Edge Of The In Between') built on Dec 1 2013 17:55:00
Writing library : libebml v1.3.0 + libmatroska v1.4.1
Video
ID : 1
Format : AVC
Format/Info : Advanced Video Codec
Format profile : High@L4.1
Format settings, CABAC : Yes
Format settings, ReFrames : 9 frames
Codec ID : V_MPEG4/ISO/AVC
Duration : 1h 41mn
Bit rate : 8 500 Kbps
Width : 1 280 pixels
Height : 720 pixels
Display aspect ratio : 16:9
Frame rate mode : Constant
Frame rate : 23.976 fps
Color space : YUV
Chroma subsampling : 4:2:0
Bit depth : 8 bits
Scan type : Progressive
Bits/(Pixel*Frame) : 0.385
Stream size : 5.86 GiB (79%)
Title : MediaClub
Writing library : x264 core 142 r2431+42 c69a006 tMod [8-bit@4:2:0 X86_64]
Encoding settings : cabac=1 / ref=9 / deblock=1:-3:-3 / analyse=0x3:0x113 / me=umh / subme=11 / psy=1 / fade_compensate=0.00 / psy_rd=1.00:0.20 / mixed_ref=1 / me_range=32 / chroma_me=1 / trellis=2 / 8x8dct=1 / cqm=0 / deadzone=21,11 / fast_pskip=0 / chroma_qp_offset=-3 / threads=12 / lookahead_threads=3 / sliced_threads=0 / nr=0 / decimate=0 / interlaced=0 / bluray_compat=0 / constrained_intra=0 / fgo=0 / bframes=12 / b_pyramid=2 / b_adapt=2 / b_bias=0 / direct=3 / weightb=1 / open_gop=0 / weightp=2 / keyint=240 / keyint_min=23 / scenecut=40 / intra_refresh=0 / rc=2pass / mbtree=0 / bitrate=8500 / ratetol=1.0 / qcomp=0.60 / qpmin=0:0:0 / qpmax=69:69:69 / qpstep=4 / cplxblur=20.0 / qblur=0.5 / ip_ratio=1.40 / pb_ratio=1.30 / aq=4:0.80 / aq-sensitivity=10.00 / aq-factor=1.00:1.00:1.00 / aq2=0 / aq3=0
Language : German
Default : Yes
Forced : No
Audio #1
ID : 2
Format : AC-3
Format/Info : Audio Coding 3
Mode extension : CM (complete main)
Format settings, Endianness : Big
Codec ID : A_AC3
Duration : 1h 41mn
Bit rate mode : Constant
Bit rate : 384 Kbps
Channel(s) : 6 channels
Channel positions : Front: L C R, Side: L R, LFE
Sampling rate : 48.0 KHz
Bit depth : 16 bits
Compression mode : Lossy
Stream size : 278 MiB (4%)
Title : MVO (R5)
Language : Russian
Default : Yes
Forced : No
Audio #2
ID : 3
Format : AC-3
Format/Info : Audio Coding 3
Mode extension : CM (complete main)
Format settings, Endianness : Big
Codec ID : A_AC3
Duration : 1h 41mn
Bit rate mode : Constant
Bit rate : 192 Kbps
Channel(s) : 2 channels
Channel positions : Front: L R
Sampling rate : 48.0 KHz
Bit depth : 16 bits
Compression mode : Lossy
Stream size : 139 MiB (2%)
Title : MVO (Варус-Видео)
Language : Russian
Default : No
Forced : No
Audio #3
ID : 4
Format : AC-3
Format/Info : Audio Coding 3
Mode extension : CM (complete main)
Format settings, Endianness : Big
Codec ID : A_AC3
Duration : 1h 41mn
Bit rate mode : Constant
Bit rate : 192 Kbps
Channel(s) : 2 channels
Channel positions : Front: L R
Sampling rate : 48.0 KHz
Bit depth : 16 bits
Compression mode : Lossy
Stream size : 139 MiB (2%)
Title : Dub (Ленфильм) со вставками MVO (Варус-Видео)
Language : Russian
Default : No
Forced : No
Audio #4
ID : 5
Format : AC-3
Format/Info : Audio Coding 3
Mode extension : CM (complete main)
Format settings, Endianness : Big
Codec ID : A_AC3
Duration : 1h 41mn
Bit rate mode : Constant
Bit rate : 384 Kbps
Channel(s) : 6 channels
Channel positions : Front: L C R, Side: L R, LFE
Sampling rate : 48.0 KHz
Bit depth : 16 bits
Compression mode : Lossy
Stream size : 278 MiB (4%)
Title : AVO (Михалев)
Language : Russian
Default : No
Forced : No
Audio #5
ID : 6
Format : AC-3
Format/Info : Audio Coding 3
Mode extension : CM (complete main)
Format settings, Endianness : Big
Codec ID : A_AC3
Duration : 1h 41mn
Bit rate mode : Constant
Bit rate : 192 Kbps
Channel(s) : 2 channels
Channel positions : Front: L R
Sampling rate : 48.0 KHz
Bit depth : 16 bits
Compression mode : Lossy
Stream size : 139 MiB (2%)
Title : DVO (НТН)
Language : Ukrainian
Default : No
Forced : No
Audio #6
ID : 7
Format : AC-3
Format/Info : Audio Coding 3
Mode extension : CM (complete main)
Format settings, Endianness : Big
Codec ID : A_AC3
Duration : 1h 41mn
Bit rate mode : Constant
Bit rate : 192 Kbps
Channel(s) : 2 channels
Channel positions : Front: L R
Sampling rate : 48.0 KHz
Bit depth : 16 bits
Compression mode : Lossy
Stream size : 139 MiB (2%)
Title : DVO (1+1)
Language : Ukrainian
Default : No
Forced : No
Audio #7
ID : 8
Format : AC-3
Format/Info : Audio Coding 3
Mode extension : CM (complete main)
Format settings, Endianness : Big
Codec ID : A_AC3
Duration : 1h 41mn
Bit rate mode : Constant
Bit rate : 448 Kbps
Channel(s) : 6 channels
Channel positions : Front: L C R, Side: L R, LFE
Sampling rate : 48.0 KHz
Bit depth : 16 bits
Compression mode : Lossy
Stream size : 324 MiB (4%)
Title : Original
Language : English
Default : No
Forced : No
Text #1
ID : 9
Format : UTF-8
Codec ID : S_TEXT/UTF8
Codec ID/Info : UTF-8 Plain Text
Title : Full
Language : Russian
Default : No
Forced : No
Text #2
ID : 10
Format : UTF-8
Codec ID : S_TEXT/UTF8
Codec ID/Info : UTF-8 Plain Text
Title : Full
Language : English
Default : No
Forced : No
Menu
00:00:00.375 : en:Chapter 01
00:10:00.599 : en:Chapter 02
00:20:01.200 : en:Chapter 03
00:30:01.800 : en:Chapter 04
00:40:02.400 : en:Chapter 05
00:50:03.000 : en:Chapter 06
01:00:03.600 : en:Chapter 07
01:10:04.200 : en:Chapter 08
01:20:04.800 : en:Chapter 09
01:30:05.400 : en:Chapter 10
01:40:06.000 : en:Chapter 11
Скриншоты
Скачать

Скачать торрент!

Как скачивать? · Что такое торрент? · Рейтинг и ограничения

Сайт не распространяет и не хранит электронные версии произведений, а лишь предоставляет доступ к создаваемому пользователями каталогу ссылок на торрент-файлы, которые содержат только списки хеш-сумм

[Профиль] [ЛС]
Показать сообщения:    
Ответить на тему

Текущее время: Сегодня 11:42

Часовой пояс: GMT + 4



Вы не можете начинать темы
Вы не можете отвечать на сообщения
Вы не можете редактировать свои сообщения
Вы не можете удалять свои сообщения
Вы не можете голосовать в опросах
Вы не можете прикреплять файлы к сообщениям
Вы не можете скачивать файлы