Тело и душа / Body and Soul (Джордж Бауэрс / George Bowers) [1981, США, спортивная драма, HDTV 1080i] DVO (НТВ+) + Original Eng

Ответить на тему
 
Автор Сообщение

user ®

Стаж: 7 лет 7 месяцев

Сообщений: 20008

Пост Пост: #1 от 14-Сен-2014 23:50

[Цитировать]

Тело и душа / Body and Soul- Страна: США
Студия: Golan-Globus Productions, Kennedy Productions, MGM
Жанр: спортивная драма
Год выпуска: 1981
Продолжительность: 01:41:14
Перевод: Профессиональный (двухголосый закадровый) НТВ+ /Ольга Плетнёва и Игорь Тарадайкин/
Cубтитры: нет
Оригинальная аудиодорожка: английский-Режиссер: Джордж Бауэрс / George Bowers
В ролях: Леон Айзек Кеннеди, Джейн Кеннеди, Перри Лэнг, Никки Свэйзи Ситон, Майкл В. Гаццо, Ким Хэмилтон, Мухаммед Али...-Описание: Фильм о боксере, который ради серьезного спорта оставляет многообещающую карьеру врача. Участвуя в чемпионате, он надеется получить большие деньги. У фильма есть одноименный предшественник, выпущенный Джоном Гарфилдом в 1947 году. Этот же вариант много уступает той классической ленте, ему не хватает той жизненности и драматизма.-Релиз: -Семпл: http://sendfile.su/1021994-Тип релиза: HDTV 1080i
Контейнер: TS
Видео: 1920x1080 (16:9), 25.000 fps, AVC, ~6707 Kbps, 0.129 bits/pixel
Аудио 1: Russian, 48.0 KHz, MPEG-1 Audio layer 2, 2 ch, 192 Kbps
Аудио 2: English, 48.0 KHz, MPEG-1 Audio layer 2, 2 ch, 192 Kbps
MediaInfo
GeneralID : 1 (0x1)Complete name : Body and Soul 1981 MGMHD 1080i DVO NTV+ rus.eng.tsFormat : MPEG-TSFile size : 5.28 GiBDuration : 1h 41mnOverall bit rate mode : VariableOverall bit rate : 7 464 KbpsMaximum Overall bit rate : 35.5 Mbps
VideoID : 4113 (0x1011)Menu ID : 1 (0x1)Format : AVCFormat/Info : Advanced Video CodecFormat profile : High@L4.0Format settings, CABAC : YesFormat settings, ReFrames : 4 framesCodec ID : 27Duration : 1h 41mnBit rate mode : VariableBit rate : 6 707 KbpsMaximum bit rate : 40.0 MbpsWidth : 1 920 pixelsHeight : 1 080 pixelsDisplay aspect ratio : 16:9Frame rate : 25.000 fpsStandard : ComponentColor space : YUVChroma subsampling : 4:2:0Bit depth : 8 bitsScan type : InterlacedScan order : Top Field FirstBits/(Pixel*Frame) : 0.129Stream size : 4.74 GiB (90%)Color primaries : BT.709Transfer characteristics : BT.709Matrix coefficients : BT.709
Audio #1ID : 4352 (0x1100)Menu ID : 1 (0x1)Format : MPEG AudioFormat version : Version 1Format profile : Layer 2Codec ID : 4Duration : 1h 41mnBit rate mode : ConstantBit rate : 192 KbpsChannel(s) : 2 channelsSampling rate : 48.0 KHzCompression mode : LossyStream size : 139 MiB (3%)Language : Russian
Audio #2ID : 4353 (0x1101)Menu ID : 1 (0x1)Format : MPEG AudioFormat version : Version 1Format profile : Layer 2Codec ID : 4Duration : 1h 41mnBit rate mode : ConstantBit rate : 192 KbpsChannel(s) : 2 channelsSampling rate : 48.0 KHzCompression mode : LossyStream size : 139 MiB (3%)Language : English
Скриншоты
Скачать

Скачать торрент!

Как скачивать? · Что такое торрент? · Рейтинг и ограничения

Сайт не распространяет и не хранит электронные версии произведений, а лишь предоставляет доступ к создаваемому пользователями каталогу ссылок на торрент-файлы, которые содержат только списки хеш-сумм

[Профиль] [ЛС]
Показать сообщения:    
Ответить на тему

Текущее время: Сегодня 18:21

Часовой пояс: GMT + 4



Вы не можете начинать темы
Вы не можете отвечать на сообщения
Вы не можете редактировать свои сообщения
Вы не можете удалять свои сообщения
Вы не можете голосовать в опросах
Вы не можете прикреплять файлы к сообщениям
Вы не можете скачивать файлы