Искатели могил / Grave Encounters (Братья Вишес / The Vicious Brothers) [2011, Канада, ужасы, триллер, BDRip 720p] MVO + VO + Sub Rus, Eng + Original Eng

Ответить на тему
 
Автор Сообщение

user ®

Стаж: 7 лет 7 месяцев

Сообщений: 20008

Пост Пост: #1 от 14-Сен-2014 23:50

[Цитировать]

Искатели могил / Grave Encounters
Страна: Канада
Жанр: ужасы, триллер
Год выпуска: 2011
Продолжительность: 01:33:33
Перевод: Профессиональный (многоголосый закадровый) R5
Перевод 2: Одноголосый закадровый Хихикающий доктор
Cубтитры: русские, английские
Оригинальная аудиодорожка: английский
Режиссер: Братья Вишес / The Vicious Brothers
В ролях: Шон Роджерсон, Мервин Мондесер, Эшли Грызко, МакКензи Грэй, Хуан Ридингер, Бен Уилкинсон, Шон МакДональд, Артур Корбер, Боб Рэти, Фред Китинг
Описание: Участники телевизионного шоу охотников за привидениями «Искатели» во главе с Лэнсом Прэстоном соглашаются провести ночь в психиатрической лечебнице, о которой давно ходят жуткие легенды. Запертые на ночь в большом здании больницы «искатели» быстро обнаружили, что теперь бороться с призраками придется всерьез, а не понарошку, так что дожить до утра у них нет никаких шансов…
Imdb|Кинопоиск|Сэмпл
Тип релиза: BDRip 720p
Контейнер: MKV
Видео: MPEG4 Video (H264) 1280x720 24fps 9 866 Kbps
Аудио: Русский AC-3 6 ch 48.0 KHz 384 Kbps
Аудио 2: Русский AC-3 2 ch 48.0 KHz 256 Kbps
Аудио 3: Английский AC-3 6 ch 48.0 KHz 640 Kbps
Формат субтитров: softsub (SRT)
MediaInfo
General
Unique ID : 190026651733385531102718852041799909643 (0x8EF5CD480A4EB3AA8DF3CC793644410B)
Complete name : C:\Users\Вика\Desktop\Grave.Encounters.2011.BDRip.720p.mkv
Format : Matroska
Format version : Version 4 / Version 2
File size : 7.43 GiB
Duration : 1h 33mn
Overall bit rate : 11.4 Mbps
Movie name : Released by Kaliber
Encoded date : UTC 2014-09-12 11:07:45
Writing application : mkvmerge v6.9.1 ('Blue Panther') 64bit built on Apr 18 2014 18:23:38
Writing library : libebml v1.3.0 + libmatroska v1.4.1
DURATION : 01:30:10.893000000
NUMBER_OF_FRAMES : 1175
NUMBER_OF_BYTES : 36923
_STATISTICS_WRITING_APP : mkvmerge v7.1.0 ('Good Love') 64bit built on Jul 27 2014 13:06:55
_STATISTICS_WRITING_DATE_UTC : 2014-08-17 11:43:23
_STATISTICS_TAGS : BPS DURATION NUMBER_OF_FRAMES NUMBER_OF_BYTES
Video
ID : 1
Format : AVC
Format/Info : Advanced Video Codec
Format profile : High@L4.1
Format settings, CABAC : Yes
Format settings, ReFrames : 9 frames
Codec ID : V_MPEG4/ISO/AVC
Duration : 1h 33mn
Bit rate : 9 866 Kbps
Width : 1 280 pixels
Height : 720 pixels
Display aspect ratio : 16:9
Frame rate mode : Constant
Frame rate : 24.000 fps
Color space : YUV
Chroma subsampling : 4:2:0
Bit depth : 8 bits
Scan type : Progressive
Bits/(Pixel*Frame) : 0.446
Stream size : 6.45 GiB (87%)
Writing library : x264 core 142 r2431 ac76440
Encoding settings : cabac=1 / ref=9 / deblock=1:-3:-3 / analyse=0x3:0x133 / me=umh / subme=10 / psy=1 / psy_rd=1.00:0.00 / mixed_ref=1 / me_range=48 / chroma_me=1 / trellis=2 / 8x8dct=1 / cqm=0 / deadzone=21,11 / fast_pskip=1 / chroma_qp_offset=-2 / threads=4 / lookahead_threads=1 / sliced_threads=0 / nr=0 / decimate=1 / interlaced=0 / bluray_compat=0 / constrained_intra=0 / bframes=8 / b_pyramid=2 / b_adapt=2 / b_bias=0 / direct=3 / weightb=1 / open_gop=0 / weightp=2 / keyint=250 / keyint_min=24 / scenecut=40 / intra_refresh=0 / rc_lookahead=150 / rc=crf / mbtree=0 / crf=16.5 / qcomp=0.75 / qpmin=0 / qpmax=69 / qpstep=4 / vbv_maxrate=50000 / vbv_bufsize=62500 / crf_max=0.0 / nal_hrd=none / filler=0 / ip_ratio=1.30 / pb_ratio=1.20 / aq=1:0.75
Language : English
Default : Yes
Forced : No
DURATION : 01:33:33.500000000
NUMBER_OF_FRAMES : 134724
NUMBER_OF_BYTES : 7080121561
_STATISTICS_WRITING_APP : mkvmerge v7.1.0 ('Good Love') 64bit built on Jul 27 2014 13:06:55
_STATISTICS_WRITING_DATE_UTC : 2014-08-17 11:43:23
_STATISTICS_TAGS : BPS DURATION NUMBER_OF_FRAMES NUMBER_OF_BYTES
Audio #1
ID : 2
Format : AC-3
Format/Info : Audio Coding 3
Mode extension : CM (complete main)
Format settings, Endianness : Big
Codec ID : A_AC3
Duration : 1h 33mn
Bit rate mode : Constant
Bit rate : 384 Kbps
Channel count : 6 channels
Channel positions : Front: L C R, Side: L R, LFE
Sampling rate : 48.0 KHz
Bit depth : 16 bits
Compression mode : Lossy
Stream size : 257 MiB (3%)
Title : MVO
Language : Russian
Default : Yes
Forced : No
Audio #2
ID : 3
Format : AC-3
Format/Info : Audio Coding 3
Mode extension : CM (complete main)
Format settings, Endianness : Big
Codec ID : A_AC3
Duration : 1h 33mn
Bit rate mode : Constant
Bit rate : 256 Kbps
Channel count : 2 channels
Channel positions : Front: L R
Sampling rate : 48.0 KHz
Bit depth : 16 bits
Compression mode : Lossy
Stream size : 171 MiB (2%)
Title : VO
Language : Russian
Default : No
Forced : No
Audio #3
ID : 4
Format : AC-3
Format/Info : Audio Coding 3
Mode extension : CM (complete main)
Format settings, Endianness : Big
Codec ID : A_AC3
Duration : 1h 33mn
Bit rate mode : Constant
Bit rate : 640 Kbps
Channel count : 6 channels
Channel positions : Front: L C R, Side: L R, LFE
Sampling rate : 48.0 KHz
Bit depth : 16 bits
Compression mode : Lossy
Stream size : 428 MiB (6%)
Language : English
Default : No
Forced : No
Text #1
ID : 5
Format : UTF-8
Codec ID : S_TEXT/UTF8
Codec ID/Info : UTF-8 Plain Text
Language : Russian
Default : No
Forced : No
Text #2
ID : 6
Format : UTF-8
Codec ID : S_TEXT/UTF8
Codec ID/Info : UTF-8 Plain Text
Language : English
Default : No
Forced : No
Menu
00:00:00.000 : :00:00:00.000
00:11:54.583 : :00:11:54.583
00:23:23.417 : :00:23:23.417
00:35:38.208 : :00:35:38.208
00:47:53.000 : :00:47:53.000
00:58:50.542 : :00:58:50.542
01:10:35.792 : :01:10:35.792
01:22:15.958 : :01:22:15.958
Скриншоты
Скачать

Скачать торрент!

Как скачивать? · Что такое торрент? · Рейтинг и ограничения

Сайт не распространяет и не хранит электронные версии произведений, а лишь предоставляет доступ к создаваемому пользователями каталогу ссылок на торрент-файлы, которые содержат только списки хеш-сумм

[Профиль] [ЛС]
Показать сообщения:    
Ответить на тему

Текущее время: Сегодня 08:25

Часовой пояс: GMT + 4



Вы не можете начинать темы
Вы не можете отвечать на сообщения
Вы не можете редактировать свои сообщения
Вы не можете удалять свои сообщения
Вы не можете голосовать в опросах
Вы не можете прикреплять файлы к сообщениям
Вы не можете скачивать файлы