Смертельное оружие 3 / Lethal Weapon 3 (Ричард Доннер / Richard Donner) [1992, США, боевик, триллер, комедия, криминал, BDRip 720p] 2x Dub + 3x MVO + DVO + 2x AVO + VO + Original Eng + sub rus, eng

Ответить на тему
 
Автор Сообщение

user ®

Стаж: 7 лет 7 месяцев

Сообщений: 20008

Пост Пост: #1 от 14-Сен-2014 23:50

[Цитировать]

Смертельное оружие 3 / Lethal Weapon 3- Год выпуска: 1992
Выпущено: США
Жанр: боевик, триллер, комедия, криминал
Продолжительность: 01:57:53
Перевод: Профессиональный (полное дублирование) Blu-ray CEE
+ Профессиональный (полное дублирование) Варус-Видео
+ Профессиональный (многоголосый, закадровый) ОРТ
+ Профессиональный (двухголосый, закадровый) НТВ
+ Профессиональный (многоголосый, закадровый) Россия
+ Профессиональный (многоголосый, закадровый) Премьер Видео Фильм
+ Одноголосый закадровый М.Яроцкий
+ Авторский одноголосый А.Гаврилов
+ Авторский одноголосый В.Горчаков
Оригинальная звуковая дорожка: English
Субтитры: Russian, English-Режиссер: Ричард Доннер / Richard Donner
В ролях: Мэл Гибсон, Дэнни Гловер, Джо Пеши, Рене Руссо, Стюарт Уилсон, Стив Кэхэн, Дарлен Лав, Трэйси Вульф, Дэймон Хайнс, Эбони Смит
О фильме: Третий фильм о неустрашимом полицейском Риггсе. На этот раз Мартин и его напарник Роджер сталкиваются с гангстерами, похищающими оружие со склада полиции. Преступную группу, за которой тянется длинный кровавый след, возглавляет бывший сержант Джек Тревис. Найти улики против «грязного» полицейского напарникам помогает Лорна Коул — решительная женщина-полицейский, которая не останавливается перед лицом опасности и уверенно вступает в схватку с противниками…
SbR!
Релиз:
Формат: MKV
Видео: 1280x532 at 23.976 fps, x264@L4.1, ~7697 kbps avg
Аудио #01: Russian: 48 kHz, AC3, 3/2 (L,C,R,l,r) + LFE ch, 640 kbps |Дубляж, Blu-ray CEE|
Аудио #02: Russian: 48 kHz, AC3, 2/0 (L,R) ch, 192 kbps |Дубляж, Варус Видео|
Аудио #03: Russian: 48 kHz, AC3, 2/0 (L,R) ch, 192 kbps |Многоголосый закадровый, ОРТ|
Аудио #04: Russian: 48 kHz, AC3, 2/0 (L,R) ch, 192 kbps |Двухголосый закадровый, НТВ|
Аудио #05: Russian: 48 kHz, AC3, 2/0 (L,R) ch, 192 kbps |Многоголосый закадровый, Россия|
Аудио #06: Russian: 48 kHz, AC3, 3/2 (L,C,R,l,r) + LFE ch, 384 kbps |Многоголосый закадровый, Премьер Видео Фильм|
Аудио #07: Russian: 48 kHz, DTS, 3/2 (L,C,R,l,r) + LFE ch, 1509 kbps |Одноголосый закадровый, М. Яроцкий|
Аудио #08: Russian: 48 kHz, DTS, 3/2 (L,C,R,l,r) + LFE ch, 755 kbps |Одноголосый закадровый, А. Гаврилов|
Аудио #09: Russian: 48 kHz, AC3, 2/0 (L,R) ch, 192 kbps |Одноголосый закадровый, В. Горчаков|
Аудио #10: English: 48 kHz, DTS, 3/2 (L,C,R,l,r) + LFE ch, 1509 kbps
Семпл-Source vs Encode
-
mInfo
Формат : Matroska
Версия формата : Version 4 / Version 2
Размер файла : 11,1 Гбайт
Продолжительность : 1 ч. 57 м.
Общий поток : 13,5 Мбит/сек
Название фильма : Lethal Weapon 3 (1992) - Release for HDCLUB by SbR
Дата кодирования : UTC 2014-08-29 10:09:42
Программа кодирования : mkvmerge v7.1.0 ('Good Love') 64bit built on Jul 27 2014 13:06:55
Библиотека кодирования : libebml v1.3.0 + libmatroska v1.4.1
Attachment : Yes / Yes
Видео
Идентификатор : 1
Формат : AVC
Формат/Информация : Advanced Video Codec
Профиль формата : High@L4.1
Параметр CABAC формата : Да
Параметр ReFrames формата : 12 кадров
Идентификатор кодека : V_MPEG4/ISO/AVC
Продолжительность : 1 ч. 57 м.
Битрейт : 7436 Кбит/сек
Ширина : 1280 пикселей
Высота : 532 пикселя
Соотношение сторон : 2,40:1
Режим частоты кадров : Постоянный
Частота кадров : 23,976 кадра/сек
Цветовое пространство : YUV
Субдискретизация насыщенности : 4:2:0
Битовая глубина : 8 бит
Тип развёртки : Прогрессивная
Бит/(Пиксели*Кадры) : 0.455
Размер потока : 6,12 Гбайт (55%)
Заголовок : Release for HDCLUB
Библиотека кодирования : x264 core 142 r2431+42 c69a006 tMod [8-bit@4:2:0 X86_64]
Настройки программы : cabac=1 / ref=12 / deblock=1:-2:-2 / analyse=0x3:0x133 / me=umh / subme=11 / psy=1 / fade_compensate=0.00 / psy_rd=1.00:0.00 / mixed_ref=1 / me_range=32 / chroma_me=1 / trellis=2 / 8x8dct=1 / cqm=0 / deadzone=21,11 / fast_pskip=1 / chroma_qp_offset=-2 / threads=12 / lookahead_threads=2 / sliced_threads=0 / nr=0 / decimate=1 / interlaced=0 / bluray_compat=0 / constrained_intra=0 / fgo=0 / bframes=8 / b_pyramid=2 / b_adapt=2 / b_bias=0 / direct=1 / weightb=1 / open_gop=0 / weightp=2 / keyint=250 / keyint_min=23 / scenecut=40 / intra_refresh=0 / rc_lookahead=60 / rc=crf / mbtree=0 / crf=17.0000 / qcomp=0.60 / qpmin=0:0:0 / qpmax=69:69:69 / qpstep=4 / vbv_maxrate=62500 / vbv_bufsize=78125 / crf_max=0.0 / nal_hrd=none / filler=0 / ip_ratio=1.40 / pb_ratio=1.30 / aq=4:0.80 / aq-sensitivity=11.00 / aq-factor=1.00:1.00:1.00 / aq2=1:0.60 / aq2-sensitivity=9.00 / aq2-factor=1.00:1.00:1.00 / aq3=1:[0.60:0.60]:[0.60:0.60]:[0.60:0.60]:[0.60:0.60] / aq3-sensitivity=10.00 / aq3-factor=[1.00:1.00]:[1.00:1.00]:[1.00:1.00] / aq3-boundary=192:64:24
Язык : English
Default : Нет
Forced : Нет
Основные цвета : BT.709
Характеристики трансфера : BT.709
Коэффициенты матрицы : BT.709
Аудио #1
Идентификатор : 2
Формат : AC-3
Формат/Информация : Audio Coding 3
Расширение режима : CM (complete main)
Параметр Endianness формата : Big
Идентификатор кодека : A_AC3
Продолжительность : 1 ч. 57 м.
Вид битрейта : Постоянный
Битрейт : 640 Кбит/сек
Каналы : 6 каналов
Расположение каналов : Front: L C R, Side: L R, LFE
Частота : 48,0 КГц
Битовая глубина : 16 бит
Метод сжатия : С потерями
Размер потока : 540 Мбайт (5%)
Заголовок : Dub, Blu-ray CEE / Мост Видео
Язык : Russian
Default : Да
Forced : Нет
Аудио #2
Идентификатор : 3
Формат : AC-3
Формат/Информация : Audio Coding 3
Расширение режима : CM (complete main)
Параметр Endianness формата : Big
Идентификатор кодека : A_AC3
Продолжительность : 1 ч. 57 м.
Вид битрейта : Постоянный
Битрейт : 192 Кбит/сек
Каналы : 2 канала
Расположение каналов : Front: L R
Частота : 48,0 КГц
Битовая глубина : 16 бит
Метод сжатия : С потерями
Размер потока : 162 Мбайт (1%)
Заголовок : Dub, Варус Видео
Язык : Russian
Default : Нет
Forced : Нет
Аудио #3
Идентификатор : 4
Формат : AC-3
Формат/Информация : Audio Coding 3
Расширение режима : CM (complete main)
Параметр Endianness формата : Big
Идентификатор кодека : A_AC3
Продолжительность : 1 ч. 57 м.
Вид битрейта : Постоянный
Битрейт : 192 Кбит/сек
Каналы : 2 канала
Расположение каналов : Front: L R
Частота : 48,0 КГц
Битовая глубина : 16 бит
Метод сжатия : С потерями
Размер потока : 162 Мбайт (1%)
Заголовок : MVO, ОРТ
Язык : Russian
Default : Нет
Forced : Нет
Аудио #4
Идентификатор : 5
Формат : AC-3
Формат/Информация : Audio Coding 3
Расширение режима : CM (complete main)
Параметр Endianness формата : Big
Идентификатор кодека : A_AC3
Продолжительность : 1 ч. 57 м.
Вид битрейта : Постоянный
Битрейт : 192 Кбит/сек
Каналы : 2 канала
Расположение каналов : Front: L R
Частота : 48,0 КГц
Битовая глубина : 16 бит
Метод сжатия : С потерями
Размер потока : 162 Мбайт (1%)
Заголовок : DVO, НТВ
Язык : Russian
Default : Нет
Forced : Нет
Аудио #5
Идентификатор : 6
Формат : AC-3
Формат/Информация : Audio Coding 3
Расширение режима : CM (complete main)
Параметр Endianness формата : Big
Идентификатор кодека : A_AC3
Продолжительность : 1 ч. 57 м.
Вид битрейта : Постоянный
Битрейт : 192 Кбит/сек
Каналы : 2 канала
Расположение каналов : Front: L R
Частота : 48,0 КГц
Битовая глубина : 16 бит
Метод сжатия : С потерями
Размер потока : 162 Мбайт (1%)
Заголовок : MVO, Россия
Язык : Russian
Default : Нет
Forced : Нет
Аудио #6
Идентификатор : 7
Формат : AC-3
Формат/Информация : Audio Coding 3
Расширение режима : CM (complete main)
Параметр Endianness формата : Big
Идентификатор кодека : A_AC3
Продолжительность : 1 ч. 57 м.
Вид битрейта : Постоянный
Битрейт : 384 Кбит/сек
Каналы : 6 каналов
Расположение каналов : Front: L C R, Side: L R, LFE
Частота : 48,0 КГц
Битовая глубина : 16 бит
Метод сжатия : С потерями
Размер потока : 324 Мбайт (3%)
Заголовок : MVO, Премьер Видео Фильм / Киномания
Язык : Russian
Default : Нет
Forced : Нет
Аудио #7
Идентификатор : 8
Формат : DTS
Формат/Информация : Digital Theater Systems
Режим : 16
Параметр Endianness формата : Big
Идентификатор кодека : A_DTS
Продолжительность : 1 ч. 57 м.
Вид битрейта : Постоянный
Битрейт : 1509 Кбит/сек
Каналы : 6 каналов
Расположение каналов : Front: L C R, Side: L R, LFE
Частота : 48,0 КГц
Битовая глубина : 16 бит
Метод сжатия : С потерями
Размер потока : 1,24 Гбайт (11%)
Заголовок : VO, Яроцкий
Язык : Russian
Default : Нет
Forced : Нет
Аудио #8
Идентификатор : 9
Формат : DTS
Формат/Информация : Digital Theater Systems
Режим : 16
Параметр Endianness формата : Big
Идентификатор кодека : A_DTS
Продолжительность : 1 ч. 57 м.
Вид битрейта : Постоянный
Битрейт : 755 Кбит/сек
Каналы : 6 каналов
Расположение каналов : Front: L C R, Side: L R, LFE
Частота : 48,0 КГц
Битовая глубина : 24 бит
Метод сжатия : С потерями
Размер потока : 636 Мбайт (6%)
Заголовок : VO, Гаврилов
Язык : Russian
Default : Нет
Forced : Нет
Аудио #9
Идентификатор : 10
Формат : AC-3
Формат/Информация : Audio Coding 3
Расширение режима : CM (complete main)
Параметр Endianness формата : Big
Идентификатор кодека : A_AC3
Продолжительность : 1 ч. 57 м.
Вид битрейта : Постоянный
Битрейт : 192 Кбит/сек
Каналы : 2 канала
Расположение каналов : Front: L R
Частота : 48,0 КГц
Битовая глубина : 16 бит
Метод сжатия : С потерями
Размер потока : 162 Мбайт (1%)
Заголовок : VO, Горчаков
Язык : Russian
Default : Нет
Forced : Нет
Аудио #10
Идентификатор : 11
Формат : DTS
Формат/Информация : Digital Theater Systems
Режим : 16
Параметр Endianness формата : Big
Идентификатор кодека : A_DTS
Продолжительность : 1 ч. 57 м.
Вид битрейта : Постоянный
Битрейт : 1509 Кбит/сек
Каналы : 6 каналов
Расположение каналов : Front: L C R, Side: L R, LFE
Частота : 48,0 КГц
Битовая глубина : 24 бит
Метод сжатия : С потерями
Размер потока : 1,24 Гбайт (11%)
Язык : English
Default : Нет
Forced : Нет
Текст #1
Идентификатор : 12
Формат : UTF-8
Идентификатор кодека : S_TEXT/UTF8
Идентификатор кодека/Информация : UTF-8 Plain Text
Язык : Russian
Default : Нет
Forced : Нет
Текст #2
Идентификатор : 13
Формат : UTF-8
Идентификатор кодека : S_TEXT/UTF8
Идентификатор кодека/Информация : UTF-8 Plain Text
Язык : English
Default : Нет
Forced : Нет
Меню
00:00:00.000 : en:Incendiary Credits (It's Probably Me)
00:01:39.182 : en:"There's No Bomb in There."
00:07:48.676 : en:The Patrolmen Make a Collar
00:10:05.062 : en:Armed Robbery and Armored Pursuit
00:15:11.744 : en:Showing Off the Murtaugh Home
00:20:08.832 : en:A Relationship to Build On
00:22:06.450 : en:"Rescuing" Rianne
00:24:36.975 : en:Pre-Retirement Nerves; "Cop Killers."
00:29:16.421 : en:Flak From Lorna, No Answers From Billy
00:37:00.593 : en:Hockey Rink Havok
00:43:34.028 : en:A Clean Shoot That's Not Okay
00:49:31.551 : en:Lorna's Suspicion
00:53:44.262 : en:Riggs Dogs It
00:56:17.791 : en:Arms Smugglers at Work
00:58:06.483 : en:Lethal Weapons at Work
01:00:42.347 : en:Comparing Wounds
01:05:49.111 : en:The Boat: "Don't You Get It?"
01:11:41.422 : en:A Close Shave; Find the Man Behind Te Gun (It's So Hard to Say Goodbye to Yeste)
01:14:59.745 : en:Interrogations; Lorna's Gift
01:18:15.982 : en:A Kidnapping; Jelly Roll Roger Take a Split
01:22:29.361 : en:Leo's Hospital Report
01:24:37.197 : en:Travis Makes His Move
01:27:21.945 : en:Shooting in the Subway
01:29:59.268 : en:Riggs in Pursuit
01:34:44.178 : en:Leo Flattened
01:37:15.329 : en:Foreclosing on Rancho Arroyo
01:42:34.606 : en:Officer Down; Riggs vs. Travis
01:46:24.628 : en:With Lorna
01:48:26.458 : en:A Change of Mind
01:51:44.030 : en:"He Did It to Me;" End Credits (Runaway Train)
01:57:05.018 : en:Explosive Coda
-
Скачать

Скачать торрент!

Как скачивать? · Что такое торрент? · Рейтинг и ограничения

Сайт не распространяет и не хранит электронные версии произведений, а лишь предоставляет доступ к создаваемому пользователями каталогу ссылок на торрент-файлы, которые содержат только списки хеш-сумм

[Профиль] [ЛС]
Показать сообщения:    
Ответить на тему

Текущее время: Сегодня 16:11

Часовой пояс: GMT + 4



Вы не можете начинать темы
Вы не можете отвечать на сообщения
Вы не можете редактировать свои сообщения
Вы не можете удалять свои сообщения
Вы не можете голосовать в опросах
Вы не можете прикреплять файлы к сообщениям
Вы не можете скачивать файлы