Смертельное оружие 4 / Lethal Weapon 4 (Ричард Доннер / Richard Donner) [1998, США, боевик, триллер, комедия, криминал, BDRip 720p] 2x Dub + 2x MVO + 2x AVO + 2x VO + Original Eng + sub rus, eng

Ответить на тему
 
Автор Сообщение

user ®

Стаж: 7 лет 7 месяцев

Сообщений: 20008

Пост Пост: #1 от 14-Сен-2014 23:50

[Цитировать]

Смертельное оружие 4 / Lethal Weapon 4- Год выпуска: 1998
Выпущено: США
Жанр: боевик, триллер, комедия, криминал
Продолжительность: 02:07:23
Перевод: Профессиональный (полное дублирование) Blu-ray CEE
+ Профессиональный (полное дублирование) Варус-Видео
+ Профессиональный (многоголосый, закадровый) Россия
+ Профессиональный (многоголосый, закадровый) Киномания
+ Одноголосый закадровый М.Яроцкий
+ Авторский одноголосый А.Гаврилов
+ Авторский одноголосый Ю.Живов
+ Одноголосый закадровый Н.Антонов
Оригинальная звуковая дорожка: English
Субтитры: Russian, English-Режиссер: Ричард Доннер / Richard Donner
В ролях: Мэл Гибсон, Дэнни Гловер, Джо Пеши, Рене Руссо, Крис Рок, Джет Ли, Стив Кэхэн, Ким Чан, Дарлен Лав, Трэйси Вульф
О фильме: Главный герой Риггз ждет, как он надеется, сына от Лорны Коул, а Роджер — внука. Оба уже ощущают возраст, им дали звания капитанов, но сердца их все еще молоды и без приключений не могут. В этом 4-м по счету фильме их дорожки случайно пересеклись с китайскими мафиози, печатающими фальшивые деньги.
В фильме есть юмор, множество перестрелок, драк, погонь, головокружительных трюков. Взрываются бензовозы, машины, корабли садятся на мель, Джет Ли показывает свое мастерство в восточных единоборствах.
SbR!
Релиз:
Формат: MKV
Видео: 1280x534 at 23.976 fps, x264@L4.1, ~7841 kbps avg
Аудио #01: Russian: 48 kHz, AC3, 3/2 (L,C,R,l,r) + LFE ch, 640 kbps |Дубляж, Blu-ray CEE|
Аудио #02: Russian: 48 kHz, AC3, 2/0 (L,R) ch, 192 kbps |Дубляж, Варус Видео|
Аудио #03: Russian: 48 kHz, AC3, 2/0 (L,R) ch, 192 kbps |Многоголосый закадровый, Россия|
Аудио #04: Russian: 48 kHz, AC3, 3/2 (L,C,R,l,r) + LFE ch, 384 kbps |Многоголосый закадровый, Киномания|
Аудио #05: Russian: 48 kHz, DTS, 3/2 (L,C,R,l,r) + LFE ch, 1509 kbps |Одноголосый закадровый, М. Яроцкий|
Аудио #06: Russian: 48 kHz, AC3, 3/2 (L,C,R,l,r) + LFE ch, 448 kbps |Одноголосый закадровый, А. Гаврилов|
Аудио #07: Russian: 48 kHz, DTS, 3/2 (L,C,R,l,r) + LFE ch, 1510 kbps |Одноголосый закадровый, Ю. Живов|
Аудио #08: Russian: 48 kHz, AC3, 2/0 (L,R) ch, 192 kbps |Одноголосый закадровый, Н. Антонов|
Аудио #09: English: 48 kHz, DTS, 3/2 (L,C,R,l,r) + LFE ch, 1509 kbps
Семпл-Source vs Encode
-
mInfo
Формат : Matroska
Версия формата : Version 4 / Version 2
Размер файла : 12,8 Гбайт
Продолжительность : 2 ч. 7 м.
Общий поток : 14,4 Мбит/сек
Название фильма : Lethal Weapon 4 (1998) - Release for HDCLUB by SbR
Дата кодирования : UTC 2014-08-28 10:36:38
Программа кодирования : mkvmerge v7.1.0 ('Good Love') 64bit built on Jul 27 2014 13:06:55
Библиотека кодирования : libebml v1.3.0 + libmatroska v1.4.1
Attachment : Yes / Yes
Видео
Идентификатор : 1
Формат : AVC
Формат/Информация : Advanced Video Codec
Профиль формата : High@L4.1
Параметр CABAC формата : Да
Параметр ReFrames формата : 12 кадров
Идентификатор кодека : V_MPEG4/ISO/AVC
Продолжительность : 2 ч. 7 м.
Битрейт : 7561 Кбит/сек
Ширина : 1280 пикселей
Высота : 534 пикселя
Соотношение сторон : 2,40:1
Режим частоты кадров : Постоянный
Частота кадров : 23,976 кадра/сек
Цветовое пространство : YUV
Субдискретизация насыщенности : 4:2:0
Битовая глубина : 8 бит
Тип развёртки : Прогрессивная
Бит/(Пиксели*Кадры) : 0.461
Размер потока : 6,73 Гбайт (52%)
Заголовок : Release for HDCLUB
Библиотека кодирования : x264 core 142 r2431+42 c69a006 tMod [8-bit@4:2:0 X86_64]
Настройки программы : cabac=1 / ref=12 / deblock=1:-2:-2 / analyse=0x3:0x133 / me=umh / subme=11 / psy=1 / fade_compensate=0.00 / psy_rd=1.00:0.00 / mixed_ref=1 / me_range=32 / chroma_me=1 / trellis=2 / 8x8dct=1 / cqm=0 / deadzone=21,11 / fast_pskip=1 / chroma_qp_offset=-2 / threads=12 / lookahead_threads=2 / sliced_threads=0 / nr=0 / decimate=1 / interlaced=0 / bluray_compat=0 / constrained_intra=0 / fgo=0 / bframes=9 / b_pyramid=2 / b_adapt=2 / b_bias=0 / direct=1 / weightb=1 / open_gop=0 / weightp=2 / keyint=250 / keyint_min=23 / scenecut=40 / intra_refresh=0 / rc_lookahead=60 / rc=crf / mbtree=0 / crf=17.0000 / qcomp=0.70 / qpmin=0:0:0 / qpmax=69:69:69 / qpstep=4 / vbv_maxrate=62500 / vbv_bufsize=78125 / crf_max=0.0 / nal_hrd=none / filler=0 / ip_ratio=1.40 / pb_ratio=1.30 / aq=4:0.80 / aq-sensitivity=11.00 / aq-factor=1.00:1.00:1.00 / aq2=1:0.60 / aq2-sensitivity=9.00 / aq2-factor=1.00:1.00:1.00 / aq3=1:[0.60:0.60]:[0.60:0.60]:[0.60:0.60]:[0.60:0.60] / aq3-sensitivity=10.00 / aq3-factor=[1.00:1.00]:[1.00:1.00]:[1.00:1.00] / aq3-boundary=192:64:24
Язык : English
Default : Да
Forced : Нет
Основные цвета : BT.709
Характеристики трансфера : BT.709
Коэффициенты матрицы : BT.709
Аудио #1
Идентификатор : 2
Формат : AC-3
Формат/Информация : Audio Coding 3
Расширение режима : CM (complete main)
Параметр Endianness формата : Big
Идентификатор кодека : A_AC3
Продолжительность : 2 ч. 7 м.
Вид битрейта : Постоянный
Битрейт : 640 Кбит/сек
Каналы : 6 каналов
Расположение каналов : Front: L C R, Side: L R, LFE
Частота : 48,0 КГц
Битовая глубина : 16 бит
Метод сжатия : С потерями
Размер потока : 583 Мбайт (4%)
Заголовок : Dub, Blu-ray CEE / Мост Видео
Язык : Russian
Default : Да
Forced : Нет
Аудио #2
Идентификатор : 3
Формат : AC-3
Формат/Информация : Audio Coding 3
Расширение режима : CM (complete main)
Параметр Endianness формата : Big
Идентификатор кодека : A_AC3
Продолжительность : 2 ч. 7 м.
Вид битрейта : Постоянный
Битрейт : 192 Кбит/сек
Каналы : 2 канала
Расположение каналов : Front: L R
Частота : 48,0 КГц
Битовая глубина : 16 бит
Метод сжатия : С потерями
Размер потока : 175 Мбайт (1%)
Заголовок : Dub, Варус Видео
Язык : Russian
Default : Нет
Forced : Нет
Аудио #3
Идентификатор : 4
Формат : AC-3
Формат/Информация : Audio Coding 3
Расширение режима : CM (complete main)
Параметр Endianness формата : Big
Идентификатор кодека : A_AC3
Продолжительность : 2 ч. 7 м.
Вид битрейта : Постоянный
Битрейт : 192 Кбит/сек
Каналы : 2 канала
Расположение каналов : Front: L R
Частота : 48,0 КГц
Битовая глубина : 16 бит
Метод сжатия : С потерями
Размер потока : 175 Мбайт (1%)
Заголовок : MVO, Россия
Язык : Russian
Default : Нет
Forced : Нет
Аудио #4
Идентификатор : 5
Формат : AC-3
Формат/Информация : Audio Coding 3
Расширение режима : CM (complete main)
Параметр Endianness формата : Big
Идентификатор кодека : A_AC3
Продолжительность : 2 ч. 7 м.
Вид битрейта : Постоянный
Битрейт : 384 Кбит/сек
Каналы : 6 каналов
Расположение каналов : Front: L C R, Side: L R, LFE
Частота : 48,0 КГц
Битовая глубина : 16 бит
Метод сжатия : С потерями
Размер потока : 350 Мбайт (3%)
Заголовок : MVO, Киномания
Язык : Russian
Default : Нет
Forced : Нет
Аудио #5
Идентификатор : 6
Формат : DTS
Формат/Информация : Digital Theater Systems
Режим : 16
Параметр Endianness формата : Big
Идентификатор кодека : A_DTS
Продолжительность : 2 ч. 7 м.
Вид битрейта : Постоянный
Битрейт : 1509 Кбит/сек
Каналы : 6 каналов
Расположение каналов : Front: L C R, Side: L R, LFE
Частота : 48,0 КГц
Битовая глубина : 16 бит
Метод сжатия : С потерями
Размер потока : 1,34 Гбайт (10%)
Заголовок : VO, Яроцкий
Язык : Russian
Default : Нет
Forced : Нет
Аудио #6
Идентификатор : 7
Формат : AC-3
Формат/Информация : Audio Coding 3
Расширение режима : CM (complete main)
Параметр Endianness формата : Big
Идентификатор кодека : A_AC3
Продолжительность : 2 ч. 7 м.
Вид битрейта : Постоянный
Битрейт : 448 Кбит/сек
Каналы : 6 каналов
Расположение каналов : Front: L C R, Side: L R, LFE
Частота : 48,0 КГц
Битовая глубина : 16 бит
Метод сжатия : С потерями
Размер потока : 408 Мбайт (3%)
Заголовок : VO, Гаврилов
Язык : Russian
Default : Нет
Forced : Нет
Аудио #7
Идентификатор : 8
Формат : DTS
Формат/Информация : Digital Theater Systems
Режим : 16
Параметр Endianness формата : Big
Идентификатор кодека : A_DTS
Продолжительность : 2 ч. 7 м.
Вид битрейта : Постоянный
Битрейт : 1510 Кбит/сек
Каналы : 6 каналов
Расположение каналов : Front: L C R, Side: L R, LFE
Частота : 48,0 КГц
Битовая глубина : 24 бит
Метод сжатия : С потерями
Размер потока : 1,34 Гбайт (10%)
Заголовок : VO, Живов
Язык : Russian
Default : Нет
Forced : Нет
Аудио #8
Идентификатор : 9
Формат : AC-3
Формат/Информация : Audio Coding 3
Расширение режима : CM (complete main)
Параметр Endianness формата : Big
Идентификатор кодека : A_AC3
Продолжительность : 2 ч. 7 м.
Вид битрейта : Постоянный
Битрейт : 192 Кбит/сек
Каналы : 2 канала
Расположение каналов : Front: L R
Частота : 48,0 КГц
Битовая глубина : 16 бит
Метод сжатия : С потерями
Размер потока : 175 Мбайт (1%)
Заголовок : VO, Антонов
Язык : Russian
Default : Нет
Forced : Нет
Аудио #9
Идентификатор : 10
Формат : DTS
Формат/Информация : Digital Theater Systems
Режим : 16
Параметр Endianness формата : Big
Идентификатор кодека : A_DTS
Продолжительность : 2 ч. 7 м.
Вид битрейта : Постоянный
Битрейт : 1509 Кбит/сек
Каналы : 6 каналов
Расположение каналов : Front: L C R, Side: L R, LFE
Частота : 48,0 КГц
Битовая глубина : 16 бит
Метод сжатия : С потерями
Размер потока : 1,34 Гбайт (10%)
Язык : English
Default : Нет
Forced : Нет
Текст #1
Идентификатор : 11
Формат : UTF-8
Идентификатор кодека : S_TEXT/UTF8
Идентификатор кодека/Информация : UTF-8 Plain Text
Язык : Russian
Default : Нет
Forced : Нет
Текст #2
Идентификатор : 12
Формат : UTF-8
Идентификатор кодека : S_TEXT/UTF8
Идентификатор кодека/Информация : UTF-8 Plain Text
Язык : English
Default : Нет
Forced : Нет
Меню
00:00:00.000 : en:Warm Reception
00:01:52.195 : en:News Under Fire
00:03:51.606 : en:Striptease
00:05:54.604 : en:On the Sea
00:09:47.587 : en:Collision Course
00:13:40.110 : en:Surprise Delivery
00:15:31.931 : en:Caught By a Train
00:17:28.964 : en:A Sensitive Man
00:20:32.439 : en:Even More Cargo
00:21:55.355 : en:About Marrying
00:25:28.109 : en:Roger Stories
00:27:50.293 : en:Menagerie
00:32:20.480 : en:Capt'ns Outrageous
00:35:42.515 : en:Mischief
00:38:17.962 : en:Hungry for Chinese
00:40:15.412 : en:Private Investigator Leo
00:43:04.123 : en:With Uncle Benny
00:46:27.868 : en:Chase in Chinatown
00:49:28.507 : en:Riggs Hangs Out
00:51:19.659 : en:Dath From Strangling
00:52:14.965 : en:Good Men
00:55:53.808 : en:Not Too Old
00:58:45.396 : en:Telephone Stories
01:02:42.675 : en:Unwelcome Guests
01:06:32.780 : en:Playing with Fire
01:09:36.463 : en:Hot Chase
01:11:34.206 : en:Party in a Caravan
01:13:44.503 : en:Turning the Tables
01:15:37.449 : en:Slight Detour
01:17:28.018 : en:Family Reunion
01:20:01.505 : en:Not with Me
01:22:38.453 : en:Funny Guys
01:27:29.202 : en:Finishing the Job
01:31:05.918 : en:Only You
01:33:03.035 : en:Dads and Kids
01:35:37.106 : en:Dealbreaker
01:38:03.919 : en:Harbor Fireworks
01:40:33.610 : en:Wounded on Both Sides
01:43:51.475 : en:Frenzy Fight
01:46:22.667 : en:Useful Weapons
01:47:29.985 : en:Riggs...Down Below
01:50:10.604 : en:Best Friends
01:53:53.368 : en:In the Last Minute
01:58:03.117 : en:The Baby Bridgade
02:00:15.208 : en:Family Album
-
Скачать

Скачать торрент!

Как скачивать? · Что такое торрент? · Рейтинг и ограничения

Сайт не распространяет и не хранит электронные версии произведений, а лишь предоставляет доступ к создаваемому пользователями каталогу ссылок на торрент-файлы, которые содержат только списки хеш-сумм

[Профиль] [ЛС]
Показать сообщения:    
Ответить на тему

Текущее время: Сегодня 00:43

Часовой пояс: GMT + 4



Вы не можете начинать темы
Вы не можете отвечать на сообщения
Вы не можете редактировать свои сообщения
Вы не можете удалять свои сообщения
Вы не можете голосовать в опросах
Вы не можете прикреплять файлы к сообщениям
Вы не можете скачивать файлы