Мантикора (Вл.Китт, Ева Белова) [2011, Россия, триллер, DVB]

Ответить на тему
 
Автор Сообщение

user ®

Стаж: 7 лет 7 месяцев

Сообщений: 20008

Пост Пост: #1 от 14-Сен-2014 23:50

[Цитировать]

Мантикора- Год выпуска: 2011
Страна: Россия
Жанр: триллер
Продолжительность: 01:38:40
субтитры: отсутствуют-Режиссёр: Вл.Китт (Владимир Музыченков), Ева Белова-В ролях: Алексей Завьялов, Катя Каренина, Сергей Бурунов, Анна Чурина, Софья Ледовских, Владимир Малков, Даниил Воробьев, Александр Андриенко, Марина Куделинская, Андрей Таратухин-Описание: На ночных дорогах Москвы опасно — одна за другой происходят таинственные аварии, в результате которых погибают люди. И каждый раз на месте аварий видят странные черные машины. Давнее соперничество между стритрейсерами и профессиональными автогонщикам разгорается с новой силой.
Главная героиня — независимая современная девушка, лидер группы ночных гонщиков, оказывается втянутой в смертельную игру...- -За исходник спасибо [url=http://***/forum/profile.php?mode=viewprofile&u=1793838]xfiles[/url]-Качество: DVB
Формат: MPEG-PS
Видео: MPEG Video, 720x576, 25 fps, ~3 580 kbps avg, 0.345 bit/pixel
Аудио: MPEG Audio, 48,0 КГц, 256 Кбит/сек, 2 канала
скриншоты MediaInfo
Общее
Идентификатор : 1 (0x1)
Полное имя : C:\Мантикора.2011.DVB.ts
Формат : MPEG-TS
Размер файла : 2,78 Гбайт
Продолжительность : 1 ч. 38 м.
Режим общего битрейта : Переменный
Общий поток : 4039 Кбит/сек
Видео
Идентификатор : 1801 (0x709)
Идентификатор меню : 1 (0x1)
Формат : AVC
Формат/Информация : Advanced Video Codec
Профиль формата : High@L3.0
Параметр CABAC формата : Да
Параметр ReFrames формата : 3 кадра
Идентификатор кодека : 27
Продолжительность : 1 ч. 38 м.
Битрейт : 3580 Кбит/сек
Ширина : 720 пикселей
Высота : 576 пикселей
Соотношение сторон : 4:3
Частота кадров : 25,000 кадров/сек
Стандарт вещания : Component
Цветовое пространство : YUV
Субдискретизация насыщенности : 4:2:0
Битовая глубина : 8 бит
Тип развёртки : Чересстрочная
Порядок развёртки : Верхнее поле первое
Бит/(Пиксели*Кадры) : 0.345
Размер потока : 2,47 Гбайт (89%)
Основные цвета : BT.601 PAL
Характеристики трансфера : BT.470 System B, BT.470 System G
Коэффициенты матрицы : BT.601
Аудио
Идентификатор : 2801 (0xAF1)
Идентификатор меню : 1 (0x1)
Формат : MPEG Audio
Версия формата : Version 1
Профиль формата : Layer 2
Идентификатор кодека : 3
Продолжительность : 1 ч. 38 м.
Вид битрейта : Постоянный
Битрейт : 256 Кбит/сек
Каналы : 2 канала
Частота : 48,0 КГц
Метод сжатия : С потерями
Размер потока : 181 Мбайт (6%)
Язык : English
____________________________________________
Стою на раздаче до 5 дней.
Просьба скачавшим как можно дольше не покидать раздачу!
ВСЕМ ПРИЯТНОГО ПРОСМОТРА!_________________________________________
Скачать

Скачать торрент!

Как скачивать? · Что такое торрент? · Рейтинг и ограничения

Сайт не распространяет и не хранит электронные версии произведений, а лишь предоставляет доступ к создаваемому пользователями каталогу ссылок на торрент-файлы, которые содержат только списки хеш-сумм

[Профиль] [ЛС]
Показать сообщения:    
Ответить на тему

Текущее время: Сегодня 12:09

Часовой пояс: GMT + 4



Вы не можете начинать темы
Вы не можете отвечать на сообщения
Вы не можете редактировать свои сообщения
Вы не можете удалять свои сообщения
Вы не можете голосовать в опросах
Вы не можете прикреплять файлы к сообщениям
Вы не можете скачивать файлы