Виноваты звезды / The Fault in Our Stars (Джош Бун / Josh Boone) [2014, США, драма, мелодрама, BDRip] [Extended Cut] Dub CEE

Ответить на тему
 
Автор Сообщение

user ®

Стаж: 7 лет 7 месяцев

Сообщений: 20008

Пост Пост: #1 от 14-Сен-2014 23:50

[Цитировать]

Виноваты звезды / The Fault in Our Stars
Расширенная версия / Extended Cut
«История, покорившая миллионы женских сердец»
-Страна: США / Temple Hill Entertainment
Жанр: драма, мелодрама
Год выпуска: 2014
Продолжительность: 02:12:53
Перевод: Профессиональный (дублированный) лицензия CEE
Cубтитры: нет
Режиссёр: Джош Бун / Josh Boone
В ролях: Шейлин Вудли, Энсел Элгорт, Лора Дерн, Сэм Трэммелл, Нат Вулф, Уиллем Дефо, Лотте Вербеек, Ана Дела Крус, Рэнди Ковиц, Тони Саладна.
Описание: Хэйзел больна раком. Несмотря на то, что болезнь временно отступила, девушка не чувствует ни капли радости. Она ходит в группу поддержки, где однажды знакомится с Огастусом Уотерсом и моментально влюбляется в него. Огастус и Хэйзел отправляются в полное страсти и жизни путешествие, которое лишний раз покажет им, что весь смысл жизни можно найти в любом ее отрезке.-Рейтинг
imdb.com: 8.20 (90 840)
kinopoisk.ru: 8.077 (10 855)
MPAA: - детям до 13 лет просмотр не желателен-Сэмпл: http://multi-up.com/999054-Качество видео: BDRip [The.Fault.in.Our.Stars.2014 / Hdclub]
Формат видео: AVI
Видео: XviD build 65, 704x384 (1.85:1), 23.976 fps, ~1889 kbps avg, 0.291 bit/pixel
Аудио: 48 kHz, AC3 Dolby Digital, 3/2 (L,C,R,l,r) + LFE ch, ~448 kbps avg (Dub)
-MediaInfo
Общее
Полное имя : D:\The.Fault.in.Our.Stars.2014.Extended.Cut.Dub.BDRip.2,18Gb.XviD.AC3.avi
Формат : AVI
Формат/Информация : Audio Video Interleave
Профиль формата : OpenDML
Размер файла : 2,18 Гбайт
Продолжительность : 2 ч. 12 м.
Общий поток : 2349 Кбит/сек
Название фильма : The Fault in Our Stars 2014. [Extended Cut]
Режиссёр : Josh Boone
Дата записи : 14.09.2014
Программа кодирования : VirtualDubModRus 1.5.10.2 (build 2542/release)
Библиотека кодирования : VirtualDubMod build 2542/release
Правообладатель : ***
Примечание : MooN_WalkeR
Видео
Идентификатор : 0
Формат : MPEG-4 Visual
Профиль формата : Advanced Simple@L5
Параметр BVOP формата : 1
Параметр QPel формата : Нет
Параметр GMC формата : Без точки перехода
Параметр матрицы формата : Выборочная
Идентификатор кодека : XVID
Идентификатор кодека/Подсказка : XviD
Продолжительность : 2 ч. 12 м.
Битрейт : 1889 Кбит/сек
Ширина : 704 пикселя
Высота : 384 пикселя
Соотношение сторон : 1,85:1
Частота кадров : 23,976 кадра/сек
Цветовое пространство : YUV
Субдискретизация насыщенности : 4:2:0
Битовая глубина : 8 бит
Тип развёртки : Прогрессивная
Метод сжатия : С потерями
Бит/(Пиксели*Кадры) : 0.291
Размер потока : 1,75 Гбайт (80%)
Библиотека кодирования : XviD 65
Аудио
Идентификатор : 1
Формат : AC-3
Формат/Информация : Audio Coding 3
Расширение режима : CM (complete main)
Параметр Endianness формата : Big
Идентификатор кодека : 2000
Продолжительность : 2 ч. 12 м.
Вид битрейта : Постоянный
Битрейт : 448 Кбит/сек
Каналы : 6 каналов
Расположение каналов : Front: L C R, Side: L R, LFE
Частота : 48,0 КГц
Битовая глубина : 16 бит
Метод сжатия : С потерями
Размер потока : 426 Мбайт (19%)
Выравнивание : Разделение по промежуткам
Продолжительность промежутка : 42 мс. (1,00 видеокадр)
Время предзагрузки промежутка : 500 мс.
Заголовок : Dub
Скриншоты
Скачать

Скачать торрент!

Как скачивать? · Что такое торрент? · Рейтинг и ограничения

Сайт не распространяет и не хранит электронные версии произведений, а лишь предоставляет доступ к создаваемому пользователями каталогу ссылок на торрент-файлы, которые содержат только списки хеш-сумм

[Профиль] [ЛС]
Показать сообщения:    
Ответить на тему

Текущее время: Сегодня 23:45

Часовой пояс: GMT + 4



Вы не можете начинать темы
Вы не можете отвечать на сообщения
Вы не можете редактировать свои сообщения
Вы не можете удалять свои сообщения
Вы не можете голосовать в опросах
Вы не можете прикреплять файлы к сообщениям
Вы не можете скачивать файлы