Люсия де Берк / Lucia de B. (Паула ван дер Уст / Paula van der Oest) [2014, Нидерланды, Швеция, триллер, драма, DVDRip] VO (Lord32x)

Ответить на тему
 
Автор Сообщение

user ®

Стаж: 7 лет 7 месяцев

Сообщений: 20008

Пост Пост: #1 от 14-Сен-2014 20:40

[Цитировать]

Люсия де Берк / Lucia de B.
Страна: Нидерланды, Швеция
Жанр: триллер, драма
Год выпуска: 2014
Продолжительность: 01:32:50
Перевод: Одноголосый закадровый Lord32x по субтитрам Janneta
Cубтитры: нет
Оригинальная аудиодорожка: нет
Режиссер: Паула ван дер Уст / Paula van der Oest
В ролях: Барри Атсма, Аманда Оомс, Марван Кензари, Федя ван Хюэт, Салли Хармсен, Аннет Мальэрб, Исис Каболе, Марсель Мустерс, Рональд Топ, Ариан Шлутер
Описание: Фильм расскажет об одном из самых громких и противоречивых судебных дел в истории Нидерландов. Медсестра Люсия де Берк обвиняется в убийстве новорожденных и стариков. Людская молва окрестила ее "Ангелом Смерти", пресса именует самой хладнокровной серийной убийцей в истории страны. Кто же такая на самом деле Люсия де Берк?
Доп. информация:

Сэмпл: http://multi-up.com/998961
Качество видео: DVDRip
Формат видео: AVI
Видео: 720x272 (2.65:1), 25 fps, XviD build 50 ~1764 kbps avg, 0.36 bit/pixel
Аудио: 48 kHz, AC3 Dolby Digital, 3/2 (L,C,R,l,r) + LFE ch, ~448 kbps
MediaInfo
General
Complete name : C:\Users\Вика\Desktop\Lucia.de.B.2014.DVDRip.avi
Format : AVI
Format/Info : Audio Video Interleave
File size : 1.44 GiB
Duration : 1h 32mn
Overall bit rate : 2 223 Kbps
Writing application : VirtualDubMod 1.5.10.3 | www.virtualdub-fr.org || (build 2550/release)
Writing library : VirtualDubMod build 2550/release
Video
ID : 0
Format : MPEG-4 Visual
Format profile : Advanced Simple@L5
Format settings, BVOP : Yes
Format settings, QPel : No
Format settings, GMC : No warppoints
Format settings, Matrix : Default (MPEG)
Codec ID : DX50
Codec ID/Hint : DivX 5
Duration : 1h 32mn
Bit rate : 1 765 Kbps
Width : 720 pixels
Height : 272 pixels
Display aspect ratio : 2.647
Frame rate : 25.000 fps
Color space : YUV
Chroma subsampling : 4:2:0
Bit depth : 8 bits
Scan type : Progressive
Compression mode : Lossy
Bits/(Pixel*Frame) : 0.360
Stream size : 1.14 GiB (79%)
Writing library : XviD 1.2.1 (UTC 2008-12-04)
Audio
ID : 1
Format : AC-3
Format/Info : Audio Coding 3
Mode extension : CM (complete main)
Format settings, Endianness : Big
Codec ID : 2000
Duration : 1h 32mn
Bit rate mode : Constant
Bit rate : 448 Kbps
Channel count : 6 channels
Channel positions : Front: L C R, Side: L R, LFE
Sampling rate : 48.0 KHz
Bit depth : 16 bits
Compression mode : Lossy
Stream size : 297 MiB (20%)
Alignment : Split accross interleaves
Interleave, duration : 40 ms (1.00 video frame)
Interleave, preload duration : 500 ms
Скриншоты
Скачать

Скачать торрент!

Как скачивать? · Что такое торрент? · Рейтинг и ограничения

Сайт не распространяет и не хранит электронные версии произведений, а лишь предоставляет доступ к создаваемому пользователями каталогу ссылок на торрент-файлы, которые содержат только списки хеш-сумм

[Профиль] [ЛС]
Показать сообщения:    
Ответить на тему

Текущее время: Сегодня 21:57

Часовой пояс: GMT + 4



Вы не можете начинать темы
Вы не можете отвечать на сообщения
Вы не можете редактировать свои сообщения
Вы не можете удалять свои сообщения
Вы не можете голосовать в опросах
Вы не можете прикреплять файлы к сообщениям
Вы не можете скачивать файлы