Совет мистраля / Лето в Провансе / Avis de mistral (Розлин Бош / Rose Bosch) [2014, Франция, драма, комедия, HDRip-AVC] VO (Lord32x) + Sub Rus + Original Fre

Ответить на тему
 
Автор Сообщение

user ®

Стаж: 7 лет 7 месяцев

Сообщений: 20008

Пост Пост: #1 от 14-Сен-2014 20:40

[Цитировать]

Совет мистраля / Лето в Провансе / Avis de mistral
Страна: Франция
Жанр: драма, комедия
Год выпуска: 2014
Продолжительность: 01:43:54
Перевод: Одноголосый закадровый Lord32x
Cубтитры: русские (Алексей Крылов), английские
Оригинальная аудиодорожка: французский
Режиссер: Розлин Бош / Rose Bosch
В ролях: Жан Рено, Анна Гальена, Хло Жуанне, Юго Дессью, Ор Атика, Лука Пелиссье, Том Либ, Жан-Мишель Нуаре, Юг Офрей, Шарлотта де Тюркейм, Фабьян Байярди, Лоран Фернандес
Описание: Лиа, Адриен и их от рождения глухой младший брат Тео отправляются на лето в Прованс к своему дедушке Полю, которого они никогда не видели раньше из-за старой семейной ссоры. Это совсем не то, о чём они мечтали. Особенно после того как их отец объявил вчера о том, что уходит из дома.
Менее чем через двадцать четыре часа произойдёт столкновение разных поколений между подростками и дедушкой, которого они считали ненормальным. И ошибались. Бурное прошлое выйдет наружу, и все увидят Поля далёких 70-х. В течение одного лета обоим поколениям предстоит познать и понять друг друга.



Качество видео: HDRip-AVC / Avis.De.Mistral.2014.1080p.BluRay.x264.DTS-RARBG
Формат видео: MKV
Видео: MPEG-4 AVC Video / 2 101 Кбит/сек / 1056x442 / 24.000 / 2.40:1 / High Profile 4.0
Аудио 1: Russian: AC3 / Dolby Digital Audio / 5.1 / 48 kHz / 448 kbps |Lord32x|
Аудио 2: French: AC3 / Dolby Digital Audio / 5.1 / 48 kHz / 448 kbps |Original|
Формат субтитров: softsub (SRT)
FAQ по просмотру MKV/h.264/AAC
[url=http://***/forum/viewtopic.php?p=9255801#1]•Смогу ли я запустить AVC фильм на своём компьютере?[/url]
[url=http://***/forum/viewtopic.php?p=9255801#2]•Сампл из раздачи не воспроизводится/тормозит или отсутствует звук/изображение. Что делать?[/url]
[url=http://***/forum/viewtopic.php?p=9255801#3]•Что такое H.264/AVC и зачем он нужен?[/url]
[url=http://***/forum/viewtopic.php?p=9255801#4]•Что за дурацкий формат .MKV?[/url]
[url=http://***/forum/viewtopic.php?p=9255801#5]•Почему MKV? Чем AVI хуже?[/url]
[url=http://***/forum/viewtopic.php?p=9255801#6]•Не могу переключить/включить/выключить аудио/видео дорожки и/или субтитры. Что делать?[/url]
[url=http://***/forum/viewtopic.php?p=9255801#14]•Как сделать так, чтобы по умолчанию при просмотре MKV файлов нужные/ненужные субтитры были включены/выключены, и/или сразу проигрывалась дорожка на нужном мне языке?[/url]
[url=http://***/forum/viewtopic.php?p=9255801#7]•Будут ли фильмы в таком формате проигрываться на бытовых плеерах без компьютера?[/url]
[url=http://***/forum/viewtopic.php?p=9255801#8]•Проигрываю фильм, а картинка очень сильно отличается от скринов/бледная/перенасыщенная. Что не так?[/url]
[url=http://***/forum/viewtopic.php?p=9255801#9]•Можно ли сконвертировать AVC в DVD?[/url]
[url=http://***/forum/viewtopic.php?p=9255801#10]•Почему сплюснута картинка / в характеристиках видео указано два разрешения / что такое анаморфное разрешение?[/url]
[url=http://***/forum/viewtopic.php?p=9255801#169]•Зачем релизёры обманывают качающих и пишут в заголовке 720p/1080p, а на самом деле раздают видеоматериалы в непонятных разрешениях?[/url]
[url=http://***/forum/viewtopic.php?p=9255801#11]•Можно ли вывести многоканальный FLAC/AAC-звук на внешний ресивер?[/url]
[url=http://***/forum/viewtopic.php?p=9255801#12]•У меня 2-канальная акустика/стереонаушники. При просмотре видео почти не слышно/совсем не слышно речь/разговоры, играют только фоновые звуки. Что делать?[/url]
[url=http://***/forum/viewtopic.php?p=9255801#coreweightp]•У меня стоит CoreAVC версии 1.9.5 или младше. При воспроизведении картинка рассыпается на квадраты и разноцветные пятна. Кривой рип?[/url]
[url=http://***/forum/viewtopic.php?p=9255801#13]•Всё прочитал(-а), решения своей проблемы не нашёл(-шла)/не смог(-ла) разобраться. Что делать?[/url]
MediaInfo
General
Unique ID                                : 185120300383179283976217706540076607304 (0x8B44DF7BC2CEB952A989ACA6CDABA748)
Complete name                            : Avis de mistral.2014.HDRip-AVC_[***].mkv
Format                                   : Matroska
Format version                           : Version 4 / Version 2
File size                                : 2.17 GiB
Duration                                 : 1h 43mn
Overall bit rate                         : 2 988 Kbps
Movie name                               : Avis de mistral.2014
Encoded date                             : UTC 2014-09-14 09:52:47
Writing application                      : mkvmerge v7.1.0 ('Good Love') 64bit built on Jul 27 2014 13:06:55
Writing library                          : libebml v1.3.0 + libmatroska v1.4.1
DURATION                                 : 01:42:55.625000000
NUMBER_OF_FRAMES                         : 1188
NUMBER_OF_BYTES                          : 29180
_STATISTICS_WRITING_APP                  : mkvmerge v7.1.0 ('Good Love') 64bit built on Jul 27 2014 13:06:55
_STATISTICS_WRITING_DATE_UTC             : 2014-09-14 09:52:47
_STATISTICS_TAGS                         : BPS DURATION NUMBER_OF_FRAMES NUMBER_OF_BYTES
Video
ID                                       : 1
Format                                   : AVC
Format/Info                              : Advanced Video Codec
Format profile                           : High@L4.0
Format settings, CABAC                   : Yes
Format settings, ReFrames                : 10 frames
Codec ID                                 : V_MPEG4/ISO/AVC
Duration                                 : 1h 43mn
Bit rate                                 : 2 101 Kbps
Width                                    : 1 056 pixels
Height                                   : 442 pixels
Display aspect ratio                     : 2.40:1
Frame rate mode                          : Constant
Frame rate                               : 24.000 fps
Color space                              : YUV
Chroma subsampling                       : 4:2:0
Bit depth                                : 8 bits
Scan type                                : Progressive
Bits/(Pixel*Frame)                       : 0.188
Stream size                              : 1.48 GiB (68%)
Title                                    : Avis de mistral.2014.HDRip-AVC_[***]
Writing library                          : x264 core 142 r2431 ac76440
Encoding settings                        : cabac=1 / ref=10 / deblock=1:-2:-1 / analyse=0x3:0x133 / me=umh / subme=11 / psy=1 / psy_rd=1.00:0.10 / mixed_ref=1 / me_range=48 / chroma_me=1 / trellis=2 / 8x8dct=1 / cqm=0 / deadzone=21,11 / fast_pskip=0 / chroma_qp_offset=-3 / threads=6 / lookahead_threads=1 / sliced_threads=0 / nr=0 / decimate=1 / interlaced=0 / bluray_compat=0 / constrained_intra=0 / bframes=9 / b_pyramid=2 / b_adapt=2 / b_bias=0 / direct=3 / weightb=1 / open_gop=0 / weightp=2 / keyint=240 / keyint_min=24 / scenecut=40 / intra_refresh=0 / rc_lookahead=80 / rc=2pass / mbtree=1 / bitrate=2101 / ratetol=1.0 / qcomp=0.60 / qpmin=0 / qpmax=69 / qpstep=4 / cplxblur=20.0 / qblur=0.5 / vbv_maxrate=25000 / vbv_bufsize=20000 / nal_hrd=none / filler=0 / ip_ratio=1.40 / aq=2:0.90
Language                                 : French
Default                                  : Yes
Forced                                   : No
Matrix coefficients                      : BT.709
Audio #1
ID                                       : 2
Format                                   : AC-3
Format/Info                              : Audio Coding 3
Mode extension                           : CM (complete main)
Format settings, Endianness              : Big
Codec ID                                 : A_AC3
Duration                                 : 1h 43mn
Bit rate mode                            : Constant
Bit rate                                 : 448 Kbps
Channel(s)                               : 6 channels
Channel positions                        : Front: L C R, Side: L R, LFE
Sampling rate                            : 48.0 KHz
Bit depth                                : 16 bits
Compression mode                         : Lossy
Stream size                              : 333 MiB (15%)
Title                                    : Одноголосый закадровый Lord32x
Language                                 : Russian
Default                                  : Yes
Forced                                   : No
Audio #2
ID                                       : 3
Format                                   : AC-3
Format/Info                              : Audio Coding 3
Mode extension                           : CM (complete main)
Format settings, Endianness              : Big
Codec ID                                 : A_AC3
Duration                                 : 1h 43mn
Bit rate mode                            : Constant
Bit rate                                 : 448 Kbps
Channel(s)                               : 6 channels
Channel positions                        : Front: L C R, Side: L R, LFE
Sampling rate                            : 48.0 KHz
Bit depth                                : 16 bits
Compression mode                         : Lossy
Stream size                              : 333 MiB (15%)
Language                                 : French
Default                                  : No
Forced                                   : No
Text #1
ID                                       : 4
Format                                   : UTF-8
Codec ID                                 : S_TEXT/UTF8
Codec ID/Info                            : UTF-8 Plain Text
Title                                    : Алексей Крылов
Language                                 : Russian
Default                                  : No
Forced                                   : No
Text #2
ID                                       : 5
Format                                   : UTF-8
Codec ID                                 : S_TEXT/UTF8
Codec ID/Info                            : UTF-8 Plain Text
Language                                 : English
Default                                  : No
Forced                                   : No
Menu
00:00:00.000                             : en:00:00:00.000
00:08:25.000                             : en:00:08:25.000
00:17:56.875                             : en:00:17:56.875
00:26:40.333                             : en:00:26:40.333
00:35:41.000                             : en:00:35:41.000
00:43:50.917                             : en:00:43:50.917
00:53:25.333                             : en:00:53:25.333
01:02:54.708                             : en:01:02:54.708
01:11:37.583                             : en:01:11:37.583
01:20:20.792                             : en:01:20:20.792
01:28:46.583                             : en:01:28:46.583
01:36:24.000                             : en:01:36:24.000
Скриншоты
Скачать

Скачать торрент!

Как скачивать? · Что такое торрент? · Рейтинг и ограничения

Сайт не распространяет и не хранит электронные версии произведений, а лишь предоставляет доступ к создаваемому пользователями каталогу ссылок на торрент-файлы, которые содержат только списки хеш-сумм

[Профиль] [ЛС]
Показать сообщения:    
Ответить на тему

Текущее время: Сегодня 00:12

Часовой пояс: GMT + 4



Вы не можете начинать темы
Вы не можете отвечать на сообщения
Вы не можете редактировать свои сообщения
Вы не можете удалять свои сообщения
Вы не можете голосовать в опросах
Вы не можете прикреплять файлы к сообщениям
Вы не можете скачивать файлы