Морпехи 2: Поле огня / Jarhead 2: Field of Fire (Дон Майкл Пол / Don Michael Paul) [2014, США, боевик, BDRip] Dub

Ответить на тему
 
Автор Сообщение

user ®

Стаж: 7 лет 7 месяцев

Сообщений: 20008

Пост Пост: #1 от 14-Сен-2014 20:40

[Цитировать]

Морпехи 2: Поле огня / Jarhead 2: Field of Fire -Страна: США
Жанр: боевик
Год выпуска: 2014
Продолжительность: 01:42:30
Перевод: Профессиональный (дублированный) | Лицензия - BD CEE |
Cубтитры: нет
Оригинальная аудиодорожка: нет-Режиссер: Дон Майкл Пол / Don Michael Paul-В ролях: Коул Хаузер, Джош Келли, Даниэль Савре, Букем Вудбайн, Ронни Джатти, Кэсси Лэйтон, Джесси Гарсиа, Джейсон Вонг, Эсай Моралес, Стивен Лэнг...-Описание: Морской пехоте США в очередной раз поручили очень ответственное и смертельно опасное задание. Они отправляются в одну из стран на Ближнем Востоке, в провинцию Гильменд. Морпехов преследуют вооруженные до зубов боевики. Сквозь град пуль и шквального огня от взрыва снарядов американские военные идут к выполнению поставленной цели. Но удастся ли им выполнить задание и остаться в живых?-Автор рипа: _Flash- -Качество видео: BDRip | Jarhead.2.Field.Of.Fire.2014.BDRemux.(1080p).ExKinoRay_BD CEE |
Формат видео: AVI
Видео: 720x304, 23.976 fps, XviD build 73, 1588 kbps avg, 0.305 bit/pixel
Аудио: 48 kHz, AC3 Dolby Digital, 3/2 (L,C,R,l,r) + LFE ch, 448 kbps
-Дополнительно о фильме:
Производство, студия дубляжа, прокат:
MediaInfo
General
Complete name : C:\Jarhead.2.Field.Of.Fire.2014.BDRip.By_Flash.avi
Format : AVI
Format/Info : Audio Video Interleave
File size : 1.46 GiB
Duration : 1h 42mn
Overall bit rate : 2 045 Kbps
Writing application : VirtualDubMod 1.5.10.3 | www.virtualdub-fr.org || (build 2550/release)
Writing library : VirtualDubMod build 2550/release
Video
ID : 0
Format : MPEG-4 Visual
Format profile : Advanced Simple@L5
Format settings, BVOP : 1
Format settings, QPel : No
Format settings, GMC : No warppoints
Format settings, Matrix : Custom
Codec ID : XVID
Codec ID/Hint : XviD
Duration : 1h 42mn
Bit rate : 1 588 Kbps
Width : 720 pixels
Height : 304 pixels
Display aspect ratio : 2.35:1
Frame rate : 23.976 fps
Color space : YUV
Chroma subsampling : 4:2:0
Bit depth : 8 bits
Scan type : Progressive
Compression mode : Lossy
Bits/(Pixel*Frame) : 0.303
Stream size : 1.14 GiB (78%)
Writing library : XviD 73
Audio
ID : 1
Format : AC-3
Format/Info : Audio Coding 3
Mode extension : CM (complete main)
Format settings, Endianness : Big
Codec ID : 2000
Duration : 1h 42mn
Bit rate mode : Constant
Bit rate : 448 Kbps
Channel(s) : 6 channels
Channel positions : Front: L C R, Side: L R, LFE
Sampling rate : 48.0 KHz
Bit depth : 16 bits
Compression mode : Lossy
Stream size : 328 MiB (22%)
Alignment : Split accross interleaves
Interleave, duration : 42 ms (1.00 video frame)
Interleave, preload duration : 500 ms
Скриншот c названием фильма Скриншоты Сравнение
http://screenshotcomparison.com/comparison/91593/picture:0
релиз конкурента - [url=http://***/forum/viewtopic.php?t=4799809]http://***/forum/viewtopic.php?t=4799809[/url] - #
Скачать

Скачать торрент!

Как скачивать? · Что такое торрент? · Рейтинг и ограничения

Сайт не распространяет и не хранит электронные версии произведений, а лишь предоставляет доступ к создаваемому пользователями каталогу ссылок на торрент-файлы, которые содержат только списки хеш-сумм

[Профиль] [ЛС]
Показать сообщения:    
Ответить на тему

Текущее время: Сегодня 18:33

Часовой пояс: GMT + 4



Вы не можете начинать темы
Вы не можете отвечать на сообщения
Вы не можете редактировать свои сообщения
Вы не можете удалять свои сообщения
Вы не можете голосовать в опросах
Вы не можете прикреплять файлы к сообщениям
Вы не можете скачивать файлы