Как создать идеального парня / How to Build a Better Boy (Пол Хоэн / Paul Hoen) [2014, США, фантастика, семейный, WEB-DLRip] Dub (Disney)

Ответить на тему
 
Автор Сообщение

user ®

Стаж: 7 лет 7 месяцев

Сообщений: 20008

Пост Пост: #1 от 14-Сен-2014 17:30

[Цитировать]

Как создать идеального парня / How to Build a Better Boy
Страна: США
Жанр: фантастика, семейный
Год выпуска: 2014
Продолжительность: 01:32:34
Перевод: Профессиональный (дублированный) Disney
Cубтитры: нет
Оригинальная аудиодорожка: нет
Режиссер: Пол Хоэн / Paul Hoen
В ролях: Чайна Энн МакКлейн, Келли Бёрглунд, Маршалл Уильямс, Ной Сентинео, Эшли Аргота, Мэтт Шайвли, Роджер Барт, Саша Клементс, Нил Уайтли, Кевин Алвес и др.
Описание: Две студентки Мэи Хартли и Габби Харрисон решают создать идеального бойфренда. Что они не учли, это то, что компьютер, который они используют для этого, настроен для создания роботов суперсолдат…
Sample
Релиз: Sentiment

Качество видео: WEB-DLRip (WEB-DL (1080p) / karta78)
Формат видео: AVI
Видео: Xvid 688x384 23.976fps 925 Kbps
Аудио: 48000Hz stereo 128kbps
MediaInfo
General
Complete name : D:\Фильмы\Kak.sozdatj.idealnogo.parnia.2014.D.WEBDLRip.avi
Format : AVI
Format/Info : Audio Video Interleave
File size : 703 MiB
Duration : 1h 32mn
Overall bit rate : 1 062 Kbps
Writing application : VirtualDubMod 1.5.10.3 | www.virtualdub-fr.org || (build 2550/release)
Writing library : VirtualDubMod build 2550/release
Video
ID : 0
Format : MPEG-4 Visual
Format profile : Advanced Simple@L5
Format settings, BVOP : Yes
Format settings, QPel : No
Format settings, GMC : No warppoints
Format settings, Matrix : Default (H.263)
Codec ID : XVID
Codec ID/Hint : XviD
Duration : 1h 32mn
Bit rate : 925 Kbps
Width : 688 pixels
Height : 384 pixels
Display aspect ratio : 16:9
Frame rate : 23.976 fps
Color space : YUV
Chroma subsampling : 4:2:0
Bit depth : 8 bits
Scan type : Progressive
Compression mode : Lossy
Bits/(Pixel*Frame) : 0.146
Stream size : 612 MiB (87%)
Writing library : XviD 57
Audio
ID : 1
Format : MPEG Audio
Format version : Version 1
Format profile : Layer 3
Mode : Joint stereo
Mode extension : MS Stereo
Codec ID : 55
Codec ID/Hint : MP3
Duration : 1h 32mn
Bit rate mode : Constant
Bit rate : 128 Kbps
Channel(s) : 2 channels
Sampling rate : 48.0 KHz
Compression mode : Lossy
Stream size : 84.8 MiB (12%)
Alignment : Aligned on interleaves
Interleave, duration : 42 ms (1.00 video frame)
Interleave, preload duration : 504 ms
Writing library : LAME3.98r
Encoding settings : -m j -V 4 -q 2 -lowpass 17 -b 128
Скриншоты
Скачать

Скачать торрент!

Как скачивать? · Что такое торрент? · Рейтинг и ограничения

Сайт не распространяет и не хранит электронные версии произведений, а лишь предоставляет доступ к создаваемому пользователями каталогу ссылок на торрент-файлы, которые содержат только списки хеш-сумм

[Профиль] [ЛС]
Показать сообщения:    
Ответить на тему

Текущее время: Сегодня 14:36

Часовой пояс: GMT + 4



Вы не можете начинать темы
Вы не можете отвечать на сообщения
Вы не можете редактировать свои сообщения
Вы не можете удалять свои сообщения
Вы не можете голосовать в опросах
Вы не можете прикреплять файлы к сообщениям
Вы не можете скачивать файлы