Секрет / Secret / Bu neng shuo de mimi (Джей Чоу / Jay Chou) [2007, Тайвань, Гонконг, Фэнтези, мелодрама, драма, музыка, BDRip-AVC] DVO (BBC Saint-Petersburg) + Original

Ответить на тему
 
Автор Сообщение

user ®

Стаж: 13 лет

Сообщений: 15071

Пост Пост: #1 от 14-Сен-2014 14:20

[Цитировать]

Секрет / Secret / Bu neng shuo de mimi
Страна: Тайвань, Гонконг
Жанр: Фэнтези, мелодрама, драма, музыка
Год выпуска: 2007
Продолжительность: 01:41:29
Перевод: Профессиональный (двухголосый закадровый) BBC Saint-Petersburg
Cубтитры: нет
Оригинальная аудиодорожка: китайский
Режиссер: Джей Чоу / Jay Chou
В ролях: Джей Чоу, Луньмэй Квай, Энтони Вонг Чау-Санг, Девон Сонг, Джан Лэнг Хуанг, Чейз Чанг, Жан Юхао, Каи Ксуанг Тсенг
Описание: Лунь впервые приходит в Тамканскую среднюю школу, где работает преподавателем музыки его отец, Чу. Когда Лунь прогуливается вместе со своими одноклассниками во дворе школы, то слышит прекрасное соло на пианино. Он следует за мелодией и приходит в старый музыкальный класс, где видит играющую девушку. Ею оказывается одноклассница Луня, прекрасная Юй. Она частенько опаздывает на уроки и садится на задний ряд, неподалеку от Луня. Вскоре они становятся близкими друзьями и начинают много времени проводить вместе…
Доп. информация:

Сэмпл: http://rusfolder.com/41720562
Качество видео: [url=http://***/forum/viewtopic.php?t=3106406]BDRip-AVC[/url]
Формат видео: MKV
Видео: MPEG-4 AVC, 1024x432, 2.40:1, 23.976 кадр/с, 3000 Кбит/с
Аудио: AC-3, 48.0 KHz, 448 Кбит/с, 6 ch
Аудио 2: AC-3, 48.0 KHz, 448 Кбит/с, 6 ch
MediaInfo
General
Unique ID : 2515721607114444215805922544046495711 (0x1E482A6C9D1D02D510CD09066DAD7DF)
Complete name : /home/lx1966/Bu.neng.shuo.de.mi.mi.2007.BDRip.x264.lx1966.mkv
Format : Matroska
Format version : Version 4 / Version 2
File size : 2.76 GiB
Duration : 1h 41mn
Overall bit rate : 3 891 Kbps
Movie name : Bu.neng.shuo.de.mi.mi.2007.BDRip.x264.Rip.by.lx1966.mkv
Encoded date : UTC 2014-09-11 21:32:36
Writing application : mkvmerge v6.7.0 ('Back to the Ground') 64bit built on Jan 9 2014 18:03:17
Writing library : Lavf55.12.0
Video
ID : 1
Format : AVC
Format/Info : Advanced Video Codec
Format profile : High@L4.0
Format settings, CABAC : Yes
Format settings, ReFrames : 16 frames
Codec ID : V_MPEG4/ISO/AVC
Duration : 1h 41mn
Bit rate : 3 000 Kbps
Width : 1 024 pixels
Height : 432 pixels
Display aspect ratio : 2.40:1
Frame rate mode : Constant
Frame rate : 23.976 fps
Color space : YUV
Chroma subsampling : 4:2:0
Bit depth : 8 bits
Scan type : Progressive
Bits/(Pixel*Frame) : 0.283
Stream size : 2.07 GiB (75%)
Title : Режиссёр: Джей Чоу / Jay Chou
Writing library : x264 core 142 r2389 956c8d8
Encoding settings : cabac=1 / ref=16 / deblock=1:0:0 / analyse=0x3:0x133 / me=esa / subme=11 / psy=1 / psy_rd=1,40:0,20 / mixed_ref=0 / me_range=64 / chroma_me=1 / trellis=2 / 8x8dct=1 / cqm=0 / deadzone=21,11 / fast_pskip=1 / chroma_qp_offset=-3 / threads=6 / lookahead_threads=1 / sliced_threads=0 / nr=0 / decimate=1 / interlaced=0 / bluray_compat=0 / constrained_intra=0 / bframes=8 / b_pyramid=2 / b_adapt=2 / b_bias=0 / direct=3 / weightb=1 / open_gop=0 / weightp=2 / keyint=240 / keyint_min=24 / scenecut=40 / intra_refresh=0 / rc_lookahead=100 / rc=2pass / mbtree=1 / bitrate=3000 / ratetol=1,0 / qcomp=0,60 / qpmin=0 / qpmax=69 / qpstep=4 / cplxblur=20,0 / qblur=0,5 / vbv_maxrate=20000 / vbv_bufsize=25000 / nal_hrd=none / filler=0 / ip_ratio=1,40 / aq=1:0,90
Language : Chinese
Default : Yes
Forced : No
Color primaries : BT.709
Transfer characteristics : BT.709
Matrix coefficients : BT.709
Audio #1
ID : 2
Format : AC-3
Format/Info : Audio Coding 3
Mode extension : CM (complete main)
Format settings, Endianness : Big
Codec ID : A_AC3
Duration : 1h 41mn
Bit rate mode : Constant
Bit rate : 448 Kbps
Channel(s) : 6 channels
Channel positions : Front: L C R, Side: L R, LFE
Sampling rate : 48.0 KHz
Bit depth : 16 bits
Compression mode : Lossy
Delay relative to video : -5ms
Stream size : 325 MiB (12%)
Title : AC3, 48 kHz, 6 ch, 448 kbps
Language : Russian
Default : Yes
Forced : No
Audio #2
ID : 3
Format : AC-3
Format/Info : Audio Coding 3
Mode extension : CM (complete main)
Format settings, Endianness : Big
Codec ID : A_AC3
Duration : 1h 41mn
Bit rate mode : Constant
Bit rate : 448 Kbps
Channel(s) : 6 channels
Channel positions : Front: L C R, Side: L R, LFE
Sampling rate : 48.0 KHz
Bit depth : 16 bits
Compression mode : Lossy
Delay relative to video : -5ms
Stream size : 325 MiB (12%)
Title : AC3, 48 kHz, 6 ch, 448 kbps
Language : Chinese
Default : No
Forced : No
Лог
x264 [info]: frame I:1038 Avg QP:14,46 size: 95854
x264 [info]: frame P:31877 Avg QP:17,27 size: 34212
x264 [info]: frame B:113077 Avg QP:19,47 size: 9620
Исходник
[url=http://***/forum/viewtopic.php?t=3106406]http://***/forum/viewtopic.php?t=3106406[/url]
Скриншот c названием фильма Скриншоты
Скачать

Скачать торрент! Секрет / Secret / Bu neng shuo de mimi (Джей Чоу / Jay Chou) [2007, Тайвань, Гонконг, Фэнтези, мелодрама, драма, музыка, BDRip-AVC] DVO (BBC Saint-Petersburg) + Original

Как скачивать? · Что такое торрент? · Рейтинг и ограничения

Сайт не распространяет и не хранит электронные версии произведений, а лишь предоставляет доступ к создаваемому пользователями каталогу ссылок на торрент-файлы, которые содержат только списки хеш-сумм

[Профиль] [ЛС]
Показать сообщения:    
Ответить на тему

Текущее время: Сегодня 20:23

Часовой пояс: GMT + 4



Вы не можете начинать темы
Вы не можете отвечать на сообщения
Вы не можете редактировать свои сообщения
Вы не можете удалять свои сообщения
Вы не можете голосовать в опросах
Вы не можете прикреплять файлы к сообщениям
Вы не можете скачивать файлы