Принцесса енот / Дворец Тануки / Princess raccoon / Operetta tanuki goten (Сэйдзюн Судзуки / Seijun Suzuki) [2005, Япония, драма, сказка, DVDRip] AVO (Кузнецов)

Ответить на тему
 
Автор Сообщение

user ®

Стаж: 13 лет

Сообщений: 15071

Пост Пост: #1 от 14-Сен-2014 01:10

[Цитировать]

Принцесса енот / Дворец Тануки / Princess raccoon / Operetta tanuki goten
Страна: Япония
Жанр: драма, сказка
Год выпуска: 2005
Продолжительность: 01:50:03
Перевод: Авторский (одноголосый закадровый) Кузнецов
Cубтитры: нет
Режиссер: Сэйдзюн Судзуки / Seijun Suzuki
В ролях: Чжан Цзыи, Дзё Одагири, Хироко Якушимару, Микидзиро Хира
Описание: Принц Амечио изгнан из небесного царства своим отцом, который боится, что сын затмит его своей красотой. Скитаясь по Земле, прекрасный принц Амечио встречает странную девушку. Как потом выясняется, это никто иная как сама Принцесса Енотов (Танукихиме), хитрых бестий. Вскоре Амечио попадает в плен к енотам, а его отец подсылает к нему своих придворных, чтобы они убили его

Качество видео: DVDRip [url=http://***/forum/viewtopic.php?t=4678668]Исходник[/url]
Формат видео: AVI
Видео: 608x336, 25.000 fps, XviD ~806 kbps avg, 0.158 bit/pixel
Аудио: 48 kHz, MPEG Layer 3, 2 ch, ~128 kbps avgРелиз группы [url=http://***/forum/viewtopic.php?t=1677970] [/url]MediaInfo
Общее
Полное имя                               : D:\Раздачи\Принцесса енот DVDRip.avi
Формат                                   : AVI
Формат/Информация                        : Audio Video Interleave
Размер файла                             : 746 Мбайт
Продолжительность                        : 1 ч. 50 м.
Общий поток                              : 944 Кбит/сек
Программа кодирования                    : VirtualDubMod 1.5.10.3 | www.virtualdub-fr.org || (build 2550/release)
Библиотека кодирования                   : VirtualDubMod build 2550/release
Видео
Идентификатор                            : 0
Формат                                   : MPEG-4 Visual
Профиль формата                          : Advanced Simple@L5
Параметр BVOP формата                    : 2
Параметр QPel формата                    : Нет
Параметр GMC формата                     : Без точки перехода
Параметр матрицы формата                 : Выборочная
Идентификатор кодека                     : XVID
Идентификатор кодека/Подсказка           : XviD
Продолжительность                        : 1 ч. 50 м.
Битрейт                                  : 806 Кбит/сек
Ширина                                   : 608 пикселей
Высота                                   : 336 пикселей
Соотношение сторон                       : 16:9
Частота кадров                           : 25,000 кадров/сек
Цветовое пространство                    : YUV
Субдискретизация насыщенности            : 4:2:0
Битовая глубина                          : 8 бит
Тип развёртки                            : Прогрессивная
Метод сжатия                             : С потерями
Бит/(Пиксели*Кадры)                      : 0.158
Размер потока                            : 637 Мбайт (85%)
Библиотека кодирования                   : XviD 1.2.1 (UTC 2008-12-04)
Аудио
Идентификатор                            : 1
Формат                                   : MPEG Audio
Версия формата                           : Version 1
Профиль формата                          : Layer 3
Режим                                    : Joint stereo
Расширение режима                        : MS Stereo
Идентификатор кодека                     : 55
Идентификатор кодека/Подсказка           : MP3
Продолжительность                        : 1 ч. 50 м.
Вид битрейта                             : Постоянный
Битрейт                                  : 128 Кбит/сек
Каналы                                   : 2 канала
Частота                                  : 48,0 КГц
Метод сжатия                             : С потерями
Размер потока                            : 101 Мбайт (14%)
Выравнивание                             : Соединение по промежуткам
Продолжительность промежутка             : 40  мс. (1,00 видеокадр)
Время предзагрузки промежутка            : 504  мс.
Библиотека кодирования                   : LAME3.99r
Настройки программы                      : -m j -V 4 -q 0 -lowpass 17 -b 128
Сэмпл Скриншот c названием фильма Скриншоты
Скачать

Скачать торрент! Принцесса енот / Дворец Тануки / Princess raccoon / Operetta tanuki goten (Сэйдзюн Судзуки / Seijun Suzuki) [2005, Япония, драма, сказка, DVDRip] AVO (Кузнецов)

Как скачивать? · Что такое торрент? · Рейтинг и ограничения

Сайт не распространяет и не хранит электронные версии произведений, а лишь предоставляет доступ к создаваемому пользователями каталогу ссылок на торрент-файлы, которые содержат только списки хеш-сумм

[Профиль] [ЛС]
Показать сообщения:    
Ответить на тему

Текущее время: Сегодня 17:39

Часовой пояс: GMT + 4



Вы не можете начинать темы
Вы не можете отвечать на сообщения
Вы не можете редактировать свои сообщения
Вы не можете удалять свои сообщения
Вы не можете голосовать в опросах
Вы не можете прикреплять файлы к сообщениям
Вы не можете скачивать файлы