Чинту Джи / Chintu Ji (Ранджит Капур / Ranjit Kapoor) [2009, Индия, Драма, комедия, DVDRip] MVO (Red Media)

Ответить на тему
 
Автор Сообщение

user ®

Стаж: 12 лет

Сообщений: 15092

Пост Пост: #1 от 14-Сен-2014 01:10

[Цитировать]

Чинту Джи / Chintu Ji
Страна: Индия
Жанр: Драма, комедия
Год выпуска: 2009
Продолжительность: 01:50:25
Перевод: Профессиональный (многоголосый закадровый) Red Media
Cубтитры: нет
Режиссер: Ранджит Капур / Ranjit Kapoor
В ролях: Риши Капур, Ксения Рябинкина, Груша Капур, Прияншу Чаттерджи, Кулрадж Рандхава, Саураб Шукла, Софи Чоудхари, Вишал Баль, Гурав Бхаттачария, Канчан Бишт, Санджив Чопра, Панкадж Дюбей, Сатиш Фенн, Ашиш Гхош, Суренд Гилл, Бхупеш Джоши, Неха Каул, Маниша Прадхан, Вирендер Шарма, Сахиб Сингх, Амитабх Шривастав, Панкадж Трипати, Санджив Ватса, П.Д. Верма, Вир Пратап Сингх, Говинд Пандей, Камал Шабнам Капур, Анну Капур, Чандер Калра, Динеш Ядав
Описание: Мировая премьера "Чинту джи" прошла в Москве. Ее посетил исполнитель главной роли Риши Капур. В этой сатирической комедии он играет самого себя (Чинту – прозвище Риши Капура, которым его ласково зовут дома и в стане поклонников) – немного избалованного киноидола Риши Капура, решившего податься в политику и посетить в рамках предвыборной кампании родимый захолустный городок, чьи старейшины, в свою очередь, хотели бы использовать визит единственного знаменитого земляка, чтобы раструбить всему миру о своем существовании. Земляк же, с помпой прилетевшийся на личном самолете с секретаршей, с каждой минутой на родной земле гаснет на глазах, тщетно пытаясь раздобыть в ортодоксальном поселке алкоголь, невегетарианскую пищу и прочие столичные прелести, без которых давно не может и шагу ступить. В небольшой роли в фильме снялась советская балерина Ксения Рябинкина, в 1970 году сыгравшая в индо-советском фильме «Мое имя – клоун», где Риши дебютировал 15-летним мальчиком.
Доп. информация: Сведение звука: минакши (Спасибо!)
Сэмпл: http://multi-up.com/998802
Качество видео: DVDRip
Формат видео: AVI
Видео: XviD MPEG-4, 688x296 (2.32:1), 23.976 fps, 1568 kbps avg
Аудио: MPEG Layer 3, 48 kHz, 2/0 (L,R) ch, 192.00 kbps avg
MediaInfo
General
Complete name : F:\Chintu.Dzhi.2009.DVDRip.XviD.Minakschi.avi
Format : AVI
Format/Info : Audio Video Interleave
File size : 1.37 GiB
Duration : 1h 50mn
Overall bit rate : 1 770 Kbps
Writing application : VirtualDubMod 1.5.10.2 (build 2540/release)
Writing library : VirtualDubMod build 2540/release
Video
ID : 0
Format : MPEG-4 Visual
Format profile : AdvancedSimple@L5
Format settings, BVOP : Yes
Format settings, QPel : No
Format settings, GMC : No warppoints
Format settings, Matrix : Default (H.263)
Muxing mode : Packed bitstream
Codec ID : XVID
Codec ID/Hint : XviD
Duration : 1h 50mn
Bit rate : 1 568 Kbps
Width : 688 pixels
Height : 296 pixels
Display aspect ratio : 2.35
Frame rate : 23.976 fps
Resolution : 24 bits
Colorimetry : 4:2:0
Scan type : Progressive
Bits/(Pixel*Frame) : 0.321
Stream size : 1.21 GiB (89%)
Writing library : XviD 1.2.1 (UTC 2008-12-04)
Audio
ID : 1
Format : MPEG Audio
Format version : Version 1
Format profile : Layer 3
Codec ID : 55
Codec ID/Hint : MP3
Duration : 1h 50mn
Bit rate mode : Constant
Bit rate : 192 Kbps
Channel(s) : 2 channels
Sampling rate : 48.0 KHz
Resolution : 16 bits
Stream size : 152 MiB (11%)
Alignment : Aligned on interleaves
Interleave, duration : 42 ms (1.00 video frame)
Interleave, preload duration : 504 ms
Скриншот c названием фильма Скриншоты
Скачать

Скачать торрент! Чинту Джи / Chintu Ji (Ранджит Капур / Ranjit Kapoor) [2009, Индия, Драма, комедия, DVDRip] MVO (Red Media)

Как скачивать? · Что такое торрент? · Рейтинг и ограничения

Сайт не распространяет и не хранит электронные версии произведений, а лишь предоставляет доступ к создаваемому пользователями каталогу ссылок на торрент-файлы, которые содержат только списки хеш-сумм

[Профиль] [ЛС]
Показать сообщения:    
Ответить на тему

Текущее время: Сегодня 12:44

Часовой пояс: GMT + 4



Вы не можете начинать темы
Вы не можете отвечать на сообщения
Вы не можете редактировать свои сообщения
Вы не можете удалять свои сообщения
Вы не можете голосовать в опросах
Вы не можете прикреплять файлы к сообщениям
Вы не можете скачивать файлы