Годзилла / Godzilla (Гарет Эдвардс / Gareth Edwards) [2014 г., США, Япония, фантастика, боевик, триллер, BDRip-AVC] Dub + Ukr + Original Eng + Sub (Rus, Ukr, Eng)

Ответить на тему
 
Автор Сообщение

user ®

Стаж: 7 лет 7 месяцев

Сообщений: 20008

Пост Пост: #1 от 14-Сен-2014 01:10

[Цитировать]

-Годзилла / Godzilla«The king will rise» Страна: США, Япония
Студия: Disruption Entertainment, Legendary Pictures, Toho Company, Warner Bros. Pictures
Жанр: Фантастика, боевик, триллер
Год выпуска: 2014
Продолжительность: 01:40:08-Перевод: Профессиональный (полное дублирование), BD EUR
Оригинальная аудиодорожка: английский
Cубтитры: русские, украинские, английские
Режиссер: Гарет Эдвардс / Gareth Edwards
В ролях: Элизабет Олсен, Брайан Крэнстон, Аарон Тейлор-Джонсон, Виктор Расук, Жюльет Бинош, Салли Хокинс, Кен Ватанабе, Дэвид Стрэтэйрн, С.Дж. Адамс, Ричард Т. Джонс
Описание: Ремейк классического экшна про гигантского ящера, терроризирующего Нью-Йорк.-
Сэмпл: скачать-Релиз от -
Автор рипа: Elheym
Качество: BDRip-AVC (источник: / Blu-ray EUR / 1080p)
Контейнер: MKV
Видео: 1056x440 (2.40:1), 23.976 fps, MPEG-4 AVC, ~2080 kbps avg, 0.187 bit/pixel
Аудио #1: Русский: АС3, 5.1, 48 kHz, ~448 Кбит/с | Профессиональный (полное дублирование), BD EUR |
Аудио #2: Украинский: АС3, 5.1, 48 kHz, ~448 Кбит/с | Профессиональный (полное дублирование), BD EUR | (отдельно, в составе раздачи)
Аудио #3: Английский: АС3, 5.1, 48 kHz, ~448 Кбит/с | Оригинал | (отдельно, в составе раздачи)
Субтитры: Русские (полные, форсированные), Украинские (полные, форсированные), Английские (полные, полные SDH, полные SDH Colored)
Главы: Присутствуют, сохранены оригинальные
Размер: 2.17 GB
Цитата:
За предоставленные аудио дорожки и субтитры спасибо -
MediaInfo
Уникальный идентификатор : 243488262883727432096410040443416699369 (0xB72E223781A24A3DAFC5D0C8BFE561E9)
Полное имя : Godzilla.2014.RUS.BDRip-AVC.x264.AC3.-HQCLUB.mkv
Формат : Matroska
Версия формата : Version 2
Размер файла : 2,18 Гбайт
Продолжительность : 2 ч. 3 м.
Общий поток : 2530 Кбит/сек
Дата кодирования : UTC 2014-09-13 16:58:47
Программа кодирования : mkvmerge v5.2.0 ('I can't explain') built on Dec 18 2011 18:12:03
Библиотека кодирования : libebml v1.2.3 + libmatroska v1.3.0
Attachment : Yes / Yes
Видео
Идентификатор : 1
Формат : AVC
Формат/Информация : Advanced Video Codec
Профиль формата : High@L4.1
Параметр CABAC формата : Да
Параметр ReFrames формата : 13 кадров
Идентификатор кодека : V_MPEG4/ISO/AVC
Продолжительность : 2 ч. 3 м.
Битрейт : 2080 Кбит/сек
Ширина : 1056 пикселей
Высота : 440 пикселей
Соотношение сторон : 2,40:1
Режим частоты кадров : Постоянный
Частота кадров : 23,976 кадра/сек
Цветовое пространство : YUV
Субдискретизация насыщенности : 4:2:0
Битовая глубина : 8 бит
Тип развёртки : Прогрессивная
Бит/(Пиксели*Кадры) : 0.187
Размер потока : 1,75 Гбайт (80%)
Заголовок : Годзилла / Godzilla (2014) BDRip-AVC by HQCLUB [Elheym]
Библиотека кодирования : x264 core 142 r2453 ea0ca51
Настройки программы : cabac=1 / ref=13 / deblock=1:-3:-2 / analyse=0x3:0x113 / me=umh / subme=11 / psy=1 / psy_rd=1.00:0.00 / mixed_ref=1 / me_range=32 / chroma_me=1 / trellis=2 / 8x8dct=1 / cqm=0 / deadzone=21,11 / fast_pskip=0 / chroma_qp_offset=-4 / threads=6 / lookahead_threads=1 / sliced_threads=0 / nr=0 / decimate=1 / interlaced=0 / bluray_compat=0 / constrained_intra=0 / bframes=11 / b_pyramid=2 / b_adapt=2 / b_bias=0 / direct=3 / weightb=1 / open_gop=0 / weightp=2 / keyint=230 / keyint_min=23 / scenecut=40 / intra_refresh=0 / rc_lookahead=50 / rc=2pass / mbtree=1 / bitrate=2080 / ratetol=1.0 / qcomp=0.60 / qpmin=0 / qpmax=69 / qpstep=4 / cplxblur=20.0 / qblur=0.5 / vbv_maxrate=50000 / vbv_bufsize=62500 / nal_hrd=none / filler=0 / ip_ratio=1.40 / aq=1:0.90
Язык : English
Default : Да
Forced : Нет
Аудио
Идентификатор : 2
Формат : AC-3
Формат/Информация : Audio Coding 3
Расширение режима : CM (complete main)
Параметр Endianness формата : Big
Идентификатор кодека : A_AC3
Продолжительность : 2 ч. 3 м.
Вид битрейта : Постоянный
Битрейт : 448 Кбит/сек
Каналы : 6 каналов
Расположение каналов : Front: L C R, Side: L R, LFE
Частота : 48,0 КГц
Битовая глубина : 16 бит
Метод сжатия : С потерями
Размер потока : 395 Мбайт (18%)
Заголовок : АС3 5.1 @ 448 kbps - Dub, EUR
Язык : Russian
Default : Нет
Forced : Нет
Текст #1
Идентификатор : 3
Формат : UTF-8
Идентификатор кодека : S_TEXT/UTF8
Идентификатор кодека/Информация : UTF-8 Plain Text
Заголовок : Full, BD EUR
Язык : Russian
Default : Нет
Forced : Нет
Текст #2
Идентификатор : 4
Формат : UTF-8
Идентификатор кодека : S_TEXT/UTF8
Идентификатор кодека/Информация : UTF-8 Plain Text
Заголовок : Forced
Язык : Russian
Default : Нет
Forced : Нет
Текст #3
Идентификатор : 5
Формат : UTF-8
Идентификатор кодека : S_TEXT/UTF8
Идентификатор кодека/Информация : UTF-8 Plain Text
Заголовок : Full
Язык : Ukrainian
Default : Нет
Forced : Нет
Текст #4
Идентификатор : 6
Формат : UTF-8
Идентификатор кодека : S_TEXT/UTF8
Идентификатор кодека/Информация : UTF-8 Plain Text
Заголовок : Forced
Язык : Ukrainian
Default : Нет
Forced : Нет
Текст #5
Идентификатор : 7
Формат : UTF-8
Идентификатор кодека : S_TEXT/UTF8
Идентификатор кодека/Информация : UTF-8 Plain Text
Заголовок : Full
Язык : English
Default : Нет
Forced : Нет
Текст #6
Идентификатор : 8
Формат : UTF-8
Идентификатор кодека : S_TEXT/UTF8
Идентификатор кодека/Информация : UTF-8 Plain Text
Заголовок : Full SDH
Язык : English
Default : Нет
Forced : Нет
Текст #7
Идентификатор : 9
Формат : UTF-8
Идентификатор кодека : S_TEXT/UTF8
Идентификатор кодека/Информация : UTF-8 Plain Text
Заголовок : Full SDH Colored
Язык : Russian
Default : Нет
Forced : Нет
Меню
00:00:00.000 : :Chapter 01
00:09:22.562 : :Chapter 02
00:19:03.225 : :Chapter 03
00:30:25.532 : :Chapter 04
00:39:10.097 : :Chapter 05
00:49:43.438 : :Chapter 06
00:59:27.188 : :Chapter 07
01:09:50.186 : :Chapter 08
01:19:11.246 : :Chapter 09
01:29:57.266 : :Chapter 10
01:40:14.758 : :Chapter 11
01:52:14.728 : :Chapter 12
01:56:10.088 : :Chapter 13
02:03:06.879 : :Chapter 14
x264 log
x264 [info]: frame I:1193 Avg QP:12.18 size: 67510
x264 [info]: frame P:40389 Avg QP:15.28 size: 22416
x264 [info]: frame B:135532 Avg QP:17.63 size: 6891
x264 [info]: consecutive B-frames: 2.3% 5.2% 8.7% 19.9% 19.8% 29.5% 6.1% 4.1% 1.9% 0.7% 0.7% 1.1%
x264 [info]: ref P L0: 46.9% 8.7% 17.3% 6.9% 5.2% 3.7% 3.1% 2.1% 1.5% 1.2% 1.1% 1.0% 1.0% 0.3% 0.0%
x264 [info]: ref B L0: 75.6% 11.2% 5.0% 2.6% 1.6% 1.3% 1.0% 0.6% 0.4% 0.4% 0.2% 0.1%
x264 [info]: ref B L1: 92.6% 7.4%
Скриншоты
Скачать

Скачать торрент!

Как скачивать? · Что такое торрент? · Рейтинг и ограничения

Сайт не распространяет и не хранит электронные версии произведений, а лишь предоставляет доступ к создаваемому пользователями каталогу ссылок на торрент-файлы, которые содержат только списки хеш-сумм

[Профиль] [ЛС]
Показать сообщения:    
Ответить на тему

Текущее время: Сегодня 07:07

Часовой пояс: GMT + 4



Вы не можете начинать темы
Вы не можете отвечать на сообщения
Вы не можете редактировать свои сообщения
Вы не можете удалять свои сообщения
Вы не можете голосовать в опросах
Вы не можете прикреплять файлы к сообщениям
Вы не можете скачивать файлы