Юные герои / Little Heroes (Тун Фей Моу / Tun Fei Mou) [1983, Китай, Боевые искусства, VHSRip] VO (Буданов)

Ответить на тему
 
Автор Сообщение

user ®

Стаж: 13 лет

Сообщений: 15071

Пост Пост: #1 от 13-Сен-2014 22:00

[Цитировать]

Юные герои / Little Heroes /
Страна: Китай
Жанр: Боевые искусства
Год выпуска: 1983
Продолжительность: 01:23:30
Перевод: Одноголосый закадровый Александр Буданов) - Самоделкин пикчерз
Cубтитры: нет
Режиссер: Тун Фей Моу / Tun Fei Mou
В ролях: Юн Хао, Сяо Йен Чан, Юн Чжан,
Описание: Китай на закате династии Цин. Маньчжуры пытаются захватить детей лидеров сопротивления. Но ребятам, вместе с другими детьми, удается ускользнуть. На их поимку послан небольшой отряд.
Доп. информация: В фильме снимались члены детской, юношеской и взрослой сборной Ушу материкового Китая
Сэмпл: http://sendfile.su/
Качество видео: VHSRip
Формат видео: AVI
Видео: Xvid 720x544 29.97fps 2230kbps
Аудио: Dolby AC3 48000Hz stereo 256kbps
MediaInfo
Format/Info : Audio Video Interleave
File size : 1.45 GiB
Duration : 1h 23mn
Overall bit rate : 2 494 Kbps
Writing application : VirtualDubMod 1.5.4.1 (build 2178/release)
Writing library : VirtualDubMod build 2178/release
Video
ID : 0
Format : MPEG-4 Visual
Format profile : Advanced Simple@L5
Format settings, BVOP : 1
Format settings, QPel : No
Format settings, GMC : No warppoints
Format settings, Matrix : Custom
Codec ID : XVID
Codec ID/Hint : XviD
Duration : 1h 23mn
Bit rate : 2 230 Kbps
Width : 720 pixels
Height : 544 pixels
Display aspect ratio : 4:3
Frame rate : 29.970 fps
Color space : YUV
Chroma subsampling : 4:2:0
Bit depth : 8 bits
Scan type : Progressive
Compression mode : Lossy
Bits/(Pixel*Frame) : 0.190
Stream size : 1.30 GiB (89%)
Writing library : XviD 1.1.2 (UTC 2006-11-01)
Audio
ID : 1
Format : AC-3
Format/Info : Audio Coding 3
Mode extension : CM (complete main)
Codec ID : 2000
Duration : 1h 23mn
Bit rate mode : Constant
Bit rate : 256 Kbps
Channel(s) : 2 channels
Channel positions : Front: L R
Sampling rate : 48.0 KHz
Bit depth : 16 bits
Compression mode : Lossy
Stream size : 153 MiB (10%)
Alignment : Split accross interleaves
Interleave, duration : 96 ms (2.88 video frames)
Interleave, preload duration : 96 ms
Скриншот c названием фильма Скриншоты
Скачать

Скачать торрент! Юные герои / Little Heroes (Тун Фей Моу / Tun Fei Mou) [1983, Китай, Боевые искусства, VHSRip] VO (Буданов)

Как скачивать? · Что такое торрент? · Рейтинг и ограничения

Сайт не распространяет и не хранит электронные версии произведений, а лишь предоставляет доступ к создаваемому пользователями каталогу ссылок на торрент-файлы, которые содержат только списки хеш-сумм

[Профиль] [ЛС]
Показать сообщения:    
Ответить на тему

Текущее время: Сегодня 20:43

Часовой пояс: GMT + 4



Вы не можете начинать темы
Вы не можете отвечать на сообщения
Вы не можете редактировать свои сообщения
Вы не можете удалять свои сообщения
Вы не можете голосовать в опросах
Вы не можете прикреплять файлы к сообщениям
Вы не можете скачивать файлы