Осенний вальс (Король танцпола) (Олег Филипенко) [2008, Мелодрама, DVDRip]

Ответить на тему
 
Автор Сообщение

user ®

Стаж: 7 лет 7 месяцев

Сообщений: 20008

Пост Пост: #1 от 13-Сен-2014 22:00

[Цитировать]

Осенний вальс (Король танцпола)
Жанр: Мелодрама
Год выпуска: 2008
Продолжительность: 01:52:57
Режиссёр: Олег Филипенко
В ролях: Сергей Горобченко, Агния Дитковските, Наталия Рогоза, Олег Гущин, Марина Анисович, Василий Фролов, Римма Зюбина, Александр Кобзарь, Людмила Смородина, Леонид Титов (II), Оксана Архангельская, Евгения Вареница, Григорий Чапкис, Эльмира Джангурова
Описание: В ночном клубе красавец и прекрасный танцор Максим знакомится с молодой девушкой Машей из Конотопа. Они вальсируют на радость всем присутствующим. В скором времени, волею случая, Маша приходит наниматься на работу в столичное риэлтерское агентство, которым руководит именно Максим. Он не только девушку на работу, но и влюбляется в нее и даже, расставшись со всеми своими многочисленными любовницами, решает жениться. Но Маша вдруг исчезает. Максим мечется по городу в поисках любимой девушки. Ему помогает подруга Маши, Алина, и ее возлюбленый – немолодой банкир Стас. Когда же пылкий влюбленный все таки находит Машу в Конотопе, оказывается, что та только что вышла замуж за некоего Женю, более того, у нее есть пятилетняя дочь. Максим в отчаянии возвращается в Киев. Вскоре приезжает Маша и сообщает, что с мужем и дочкой отбывает в Америку – муж врач, дочь тяжело больна, и там, за океаном, Маша надеется вылечить девочку!
Производство: Россия, Украина, «Стар Медиа»
Сэмпл: http://multi-up.com

Качество видео: DVDRip
Формат видео: AVI
Видео: 704x384 (1.83:1), 25 fps, DivX Codec 6.8.3 ~2141 kbps , 0.32 bit/pixel
Аудио: 48 kHz, AC3 Dolby Digital, 2/0 (L,R) ch, ~448 kbps
MediaInfo
Общее
Полное имя : Osennii.wals.2008.DivX.DVDRip.Kinozal.tv.avi
Формат : AVI
Формат/Информация : Audio Video Interleave
Профиль формата : OpenDML
Размер файла : 2,05 Гбайт
Продолжительность : 1 ч. 52 м.
Общий поток : 2596 Кбит/сек
Программа кодирования : FairUse Wizard - http://fairusewizard.com
Библиотека кодирования : The best and REALLY easy backup tool
Видео
Идентификатор : 0
Формат : MPEG-4 Visual
Параметр BVOP формата : 1
Параметр QPel формата : Нет
Параметр GMC формата : Без точки перехода
Параметр матрицы формата : Default (H.263)
Режим смешивания : Сжатый битовый поток
Идентификатор кодека : DX50
Идентификатор кодека/Подсказка : DivX 5
Продолжительность : 1 ч. 52 м.
Битрейт : 2135 Кбит/сек
Ширина : 704 пикселя
Высота : 384 пикселя
Соотношение сторон : 1,85:1
Частота кадров : 25,000 кадров/сек
Цветовое пространство : YUV
Субдискретизация насыщенности : 4:2:0
Битовая глубина : 8 бит
Тип развёртки : Прогрессивная
Метод сжатия : С потерями
Бит/(Пиксели*Кадры) : 0.316
Размер потока : 1,68 Гбайт (82%)
Библиотека кодирования : DivX 6.8.3-6.8.4 (UTC 2008-06-07)
Аудио
Идентификатор : 1
Формат : AC-3
Формат/Информация : Audio Coding 3
Расширение режима : CM (complete main)
Параметр Endianness формата : Big
Идентификатор кодека : 2000
Продолжительность : 1 ч. 52 м.
Вид битрейта : Постоянный
Битрейт : 448 Кбит/сек
Каналы : 2 канала
Расположение каналов : Front: L R
Частота : 48,0 КГц
Битовая глубина : 16 бит
Метод сжатия : С потерями
Размер потока : 362 Мбайт (17%)
Выравнивание : Разделение по промежуткам
Продолжительность промежутка : 40 мс. (1,00 видеокадр)
Время предзагрузки промежутка : 500 мс.
Скриншот c названием фильма Скриншоты
Скачать

Скачать торрент!

Как скачивать? · Что такое торрент? · Рейтинг и ограничения

Сайт не распространяет и не хранит электронные версии произведений, а лишь предоставляет доступ к создаваемому пользователями каталогу ссылок на торрент-файлы, которые содержат только списки хеш-сумм

[Профиль] [ЛС]
Показать сообщения:    
Ответить на тему

Текущее время: Сегодня 10:05

Часовой пояс: GMT + 4



Вы не можете начинать темы
Вы не можете отвечать на сообщения
Вы не можете редактировать свои сообщения
Вы не можете удалять свои сообщения
Вы не можете голосовать в опросах
Вы не можете прикреплять файлы к сообщениям
Вы не можете скачивать файлы