Красотка (Дмитрий Петрунь) [2013, Мелодрама, HDTVRip]

Ответить на тему
 
Автор Сообщение

user ®

Стаж: 7 лет 7 месяцев

Сообщений: 20008

Пост Пост: #1 от 13-Сен-2014 22:00

[Цитировать]

Красотка Жанр: Мелодрама
Год выпуска: 2013
Продолжительность: 01:30:02
Режиссёр: Дмитрий Петрунь
В ролях: Анна Старшенбаум, Илья Носков, Сергей Комаров (II), Наталия Антонова, Игорь Ясулович, Роман Мадянов, Ричард Бондарев, Ангелина Лакатош, Александр Сибирцев, Сергей Серов, Ольга Хохлова, Юрий Бондаренко, Юрий Гумиров, Юлия Ковалева, Анастасия Логинова, Наталья Унгард, Елена Блинникова (II), Александр Федичкин, Михаил Инчин, Василий Бочкарёв, Леонид Трегуб, Алексей Белоус, Николай Аверюшкин, Владимир Кебин, Кирилл Мелехов, Станислав Герасимов
Описание: Кирилл, молодой успешный предприниматель, приглашен на важный деловой ужин, открывающий новые перспективы для его бизнеса. Однако есть одно непременное условие – он должен привести свою невесту, с которой до сих пор никого не познакомил. Как назло, за день до ужина влюбленные ссорятся.. К счастью, благосклонная судьба подкидывает выход из положения: Кирилл случайно знакомится с красивой и острой на язык Лизой, которую вполне можно выдать за невесту. Если бы герой знал, с кем связывается, он бы поостерегся впускать незнакомку в свою жизнь..
Доп. информация:
Рип от:
Источник: HDTVRip720p
Сэмпл: http://multi-up.com/998831
Качество видео: HDTVRip
Формат видео: AVI
Видео: 720x304 (2.37:1), 25 fps, XviD build 73 ~1019 kbps avg, 0.19 bit/pixel
Аудио: 48 kHz, MPEG Layer 3, 2 ch, ~128.00 kbps avg
MediaInfo
General
Complete name : D:\Изготовление рипа\Krasotka.2012.HDTVRip by Шкипер.avi
Format : AVI
Format/Info : Audio Video Interleave
File size : 745 MiB
Duration : 1h 30mn
Overall bit rate : 1 158 Kbps
Writing application : VirtualDubMod 1.5.10.3 | www.virtualdub-fr.org || (build 2550/release)
Writing library : VirtualDubMod build 2550/release
Video
ID : 0
Format : MPEG-4 Visual
Format profile : Advanced Simple@L5
Format settings, BVOP : 1
Format settings, QPel : No
Format settings, GMC : No warppoints
Format settings, Matrix : Default (MPEG)
Codec ID : XVID
Codec ID/Hint : XviD
Duration : 1h 30mn
Bit rate : 1 020 Kbps
Width : 720 pixels
Height : 304 pixels
Display aspect ratio : 2.35:1
Frame rate : 25.000 fps
Color space : YUV
Chroma subsampling : 4:2:0
Bit depth : 8 bits
Scan type : Progressive
Compression mode : Lossy
Bits/(Pixel*Frame) : 0.186
Stream size : 657 MiB (88%)
Writing library : XviD 73
Audio
ID : 1
Format : MPEG Audio
Format version : Version 1
Format profile : Layer 3
Mode : Joint stereo
Mode extension : MS Stereo
Codec ID : 55
Codec ID/Hint : MP3
Duration : 1h 30mn
Bit rate mode : Constant
Bit rate : 128 Kbps
Channel(s) : 2 channels
Sampling rate : 48.0 KHz
Compression mode : Lossy
Stream size : 82.4 MiB (11%)
Alignment : Aligned on interleaves
Interleave, duration : 40 ms (1.00 video frame)
Interleave, preload duration : 504 ms
Writing library : LAME3.99r
Encoding settings : -m j -V 4 -q 2 -lowpass 17 -b 128
Скриншот c названием фильма Скриншоты
Скачать

Скачать торрент!

Как скачивать? · Что такое торрент? · Рейтинг и ограничения

Сайт не распространяет и не хранит электронные версии произведений, а лишь предоставляет доступ к создаваемому пользователями каталогу ссылок на торрент-файлы, которые содержат только списки хеш-сумм

[Профиль] [ЛС]
Показать сообщения:    
Ответить на тему

Текущее время: Сегодня 08:12

Часовой пояс: GMT + 4



Вы не можете начинать темы
Вы не можете отвечать на сообщения
Вы не можете редактировать свои сообщения
Вы не можете удалять свои сообщения
Вы не можете голосовать в опросах
Вы не можете прикреплять файлы к сообщениям
Вы не можете скачивать файлы