Процесс (Константин Селиверстов) [2014, Классика, драма, артхаус, DVDRip]

Ответить на тему
 
Автор Сообщение

user ®

Стаж: 7 лет 7 месяцев

Сообщений: 20008

Пост Пост: #1 от 13-Сен-2014 15:25

[Цитировать]

Процесс
Жанр: Классика, драма, артхаус
Год выпуска: 2014
Продолжительность: 01:42:33
Режиссёр: Константин Селиверстов
В ролях: Антон Шварц, Елена Шварева, Вилли Семенов, Наталья Шамина, Александр Анисимов, Андрей Шимко, Николай Молодожен, Игорь Головин, Виктория Нарахса, Феликс Модель, Владимир Космидайло
Описание: Экранизация романа Франца Кафки «Процесс». Герой фильма Йозеф К, банковский служащий, арестован по необоснованному обвинению. Но арест этот условный — Йозеф К. может вести обычную жизнь, время от времени являясь на допросы. Однако, чем дальше раскручивается процесс, тем все более парадоксальные формы он принимает. Герой фильма не может защититься от обвинения в частности ещё и потому, что никто не сообщает ему, в чем это обвинение состоит. Он пытается найти помощь у самых разных людей и никто ему в помощи не отказывает. Но беда в том, что все эти «помощники» так или иначе связаны с таинственным судом.
Сэмпл: http://multi-up.com/998755
Качество видео: DVDRip
Формат видео: AVI
Видео: 704x400 (16:9), 25.000 fps, XviD 1.2.1 ~1822 kbps avg, 0.259 bit/pixel
Аудио: 48.0 kHz, AC-3, 2 ch, ~192 kbps
MediaInfo
General
Complete name : F:\Download\Process.2014.avi
Format : AVI
Format/Info : Audio Video Interleave
File size : 1.45 GiB
Duration : 1h 42mn
Overall bit rate : 2 024 Kbps
Writing application : VirtualDubModRus 1.5.10.2 (build 2542/release)
Writing library : VirtualDubMod build 2542/release
Video
ID : 0
Format : MPEG-4 Visual
Format profile : Advanced Simple@L5
Format settings, BVOP : 2
Format settings, QPel : No
Format settings, GMC : No warppoints
Format settings, Matrix : Default (MPEG)
Codec ID : XVID
Codec ID/Hint : XviD
Duration : 1h 42mn
Bit rate : 1 822 Kbps
Width : 704 pixels
Height : 400 pixels
Display aspect ratio : 16:9
Frame rate : 25.000 fps
Color space : YUV
Chroma subsampling : 4:2:0
Bit depth : 8 bits
Scan type : Progressive
Compression mode : Lossy
Bits/(Pixel*Frame) : 0.259
Stream size : 1.31 GiB (90%)
Writing library : XviD 1.2.1 (UTC 2008-12-04)
Audio
ID : 1
Format : AC-3
Format/Info : Audio Coding 3
Mode extension : CM (complete main)
Format settings, Endianness : Big
Codec ID : 2000
Duration : 1h 42mn
Bit rate mode : Constant
Bit rate : 192 Kbps
Channel(s) : 2 channels
Channel positions : Front: L R
Sampling rate : 48.0 KHz
Bit depth : 16 bits
Compression mode : Lossy
Stream size : 141 MiB (9%)
Alignment : Split accross interleaves
Interleave, duration : 40 ms (1.00 video frame)
Interleave, preload duration : 500 ms
Скриншот c названием фильма Скриншоты
Скачать

Скачать торрент!

Как скачивать? · Что такое торрент? · Рейтинг и ограничения

Сайт не распространяет и не хранит электронные версии произведений, а лишь предоставляет доступ к создаваемому пользователями каталогу ссылок на торрент-файлы, которые содержат только списки хеш-сумм

[Профиль] [ЛС]
Показать сообщения:    
Ответить на тему

Текущее время: Сегодня 04:51

Часовой пояс: GMT + 4



Вы не можете начинать темы
Вы не можете отвечать на сообщения
Вы не можете редактировать свои сообщения
Вы не можете удалять свои сообщения
Вы не можете голосовать в опросах
Вы не можете прикреплять файлы к сообщениям
Вы не можете скачивать файлы