Лорелея: ведьма Тихого океана / Lorelei: The Witch of the Pacific Ocean (Шинджи Хигучи / Shinji Higuchi) [2005, Япония, фантастика, боевик, триллер, драма, военный, DVDRip] MVO + DVO + AVO (Живов) + Original

Ответить на тему
 
Автор Сообщение

user ®

Стаж: 13 лет

Сообщений: 15071

Пост Пост: #1 от 12-Сен-2014 23:25

[Цитировать]

Лорелея: ведьма Тихого океана / Lorelei: The Witch of the Pacific Ocean
Страна: Япония
Жанр: фантастика, боевик, триллер, драма, военный
Год выпуска: 2005
Продолжительность: 02:08:53
Перевод: Профессиональный (многоголосый закадровый)
Перевод: Профессиональный (двухголосый закадровый)
Перевод: Авторский (одноголосый закадровый) - Юрий Живов
Cубтитры: нет
Оригинальная аудиодорожка: японский

Режиссер: Шинджи Хигучи / Shinji Higuchi
В ролях: Кодзи Якусё, Сатоси Цумабуки, Тоширо Янагиба, Касии Ю, Синъити Цуцуми, Кен Ишигуро, Колтер Эллисон, Дэвид Остин, Николас Домбровкис, Кристофер Райан Дойл
Описание: Лето 1945 года. Хиросима и Нагасаки покрыты пеплом. В условиях строжайшей секретности японский флот получает от Германии новую субмарину — лодку, оборудованную секретным оружием «Система Лорелея». С его помощью японские подводники должны предотвратить новые атомные бомбардировки…
Качество видео: [url=http://***/forum/viewtopic.php?t=749791]DVDRip[/url]
Формат видео: AVI
Видео: 704x304 (2.32:1), 23.976 fps, XviD build 73 ~1417 kbps avg, 0.28 bit/pixel
Аудио: 48 kHz, AC3 Dolby Digital, 2/0 (L,R) ch, ~192 kbps - многоголосый
Аудио: 48 kHz, AC3 Dolby Digital, 2/0 (L,R) ch, ~192 kbps - двухголосый (отдельным файлом)
Аудио: 48 kHz, AC3 Dolby Digital, 3/2 (L,C,R,l,r) + LFE ch, ~384 kbps - Живов (отдельным файлом)
Аудио: 48 kHz, AC3 Dolby Digital, 3/2 (L,C,R,l,r) + LFE ch, ~448 kbps - оригинал (отдельным файлом)


Сравнение
[url=http://***/forum/viewtopic.php?t=220254]http://***/forum/viewtopic.php?t=220254[/url]
http://screenshotcomparison.com/comparison/91324/picture:3
[url=http://***/forum/viewtopic.php?t=682361]http://***/forum/viewtopic.php?t=682361[/url]
http://screenshotcomparison.com/comparison/91328
MediaInfo
Общее
Полное имя : J:\Lorelei_ The.Witch.of.the.Pacific.Ocean.2005.dvdrip_[1.46]_[teko]\Lorelei_ The.Witch.of.the.Pacific.Ocean.2005.dvdrip_[1.46].avi
Формат : AVI
Формат/Информация : Audio Video Interleave
Размер файла : 1,46 Гбайт
Продолжительность : 2 ч. 8 м.
Общий поток : 1619 Кбит/сек
Программа кодирования : VirtualDubMod 1.5.10.3 | www.virtualdub-fr.org || (build 2550/release)
Библиотека кодирования : VirtualDubMod build 2550/release
Видео
Идентификатор : 0
Формат : MPEG-4 Visual
Профиль формата : Advanced Simple@L5
Параметр BVOP формата : 1
Параметр QPel формата : Нет
Параметр GMC формата : Без точки перехода
Параметр матрицы формата : Выборочная
Идентификатор кодека : XVID
Идентификатор кодека/Подсказка : XviD
Продолжительность : 2 ч. 8 м.
Битрейт : 1418 Кбит/сек
Ширина : 704 пикселя
Высота : 304 пикселя
Соотношение сторон : 2,35:1
Частота кадров : 23,976 кадра/сек
Цветовое пространство : YUV
Субдискретизация насыщенности : 4:2:0
Битовая глубина : 8 бит
Тип развёртки : Прогрессивная
Метод сжатия : С потерями
Бит/(Пиксели*Кадры) : 0.276
Размер потока : 1,28 Гбайт (88%)
Библиотека кодирования : XviD 73
Аудио
Идентификатор : 1
Формат : AC-3
Формат/Информация : Audio Coding 3
Расширение режима : CM (complete main)
Параметр Endianness формата : Big
Идентификатор кодека : 2000
Продолжительность : 2 ч. 8 м.
Вид битрейта : Постоянный
Битрейт : 192 Кбит/сек
Каналы : 2 канала
Расположение каналов : Front: L R
Частота : 48,0 КГц
Битовая глубина : 16 бит
Метод сжатия : С потерями
Размер потока : 177 Мбайт (12%)
Выравнивание : Разделение по промежуткам
Продолжительность промежутка : 42 мс. (1,00 видеокадр)
Время предзагрузки промежутка : 500 мс.
Скриншоты Релиз группы:
[url=http://***/forum/viewtopic.php?t=1677970] [/url]
--
Скачать

Скачать торрент! Лорелея: ведьма Тихого океана / Lorelei: The Witch of the Pacific Ocean (Шинджи Хигучи / Shinji Higuchi) [2005, Япония, фантастика, боевик, триллер, драма, военный, DVDRip] MVO + DVO + AVO (Живов) + Original

Как скачивать? · Что такое торрент? · Рейтинг и ограничения

Сайт не распространяет и не хранит электронные версии произведений, а лишь предоставляет доступ к создаваемому пользователями каталогу ссылок на торрент-файлы, которые содержат только списки хеш-сумм

[Профиль] [ЛС]
Показать сообщения:    
Ответить на тему

Текущее время: Сегодня 21:44

Часовой пояс: GMT + 4



Вы не можете начинать темы
Вы не можете отвечать на сообщения
Вы не можете редактировать свои сообщения
Вы не можете удалять свои сообщения
Вы не можете голосовать в опросах
Вы не можете прикреплять файлы к сообщениям
Вы не можете скачивать файлы