Дуновение неизвестности / Hawa (Гудду Дханоа / Guddu Dhanoa) [2003, Индия, Драма, триллер, ужасы, SATRip] MVO (Red Media)

Ответить на тему
 
Автор Сообщение

user ®

Стаж: 8 лет 7 месяцев

Сообщений: 20007

Пост Пост: #1 от 12-Сен-2014 23:25

[Цитировать]

Дуновение неизвестности / Hawa
Страна: Индия
Жанр: Драма, триллер, ужасы
Год выпуска: 2003
Продолжительность: 2:07:09

[ Перевод: Профессиональный (многоголосый закадровый) Red Media
Cубтитры: нет
Оригинальная аудиодорожка: нет

Режиссер: Гудду Дханоа / Guddu Dhanoa
В ролях: Табу, Шахбааз Кхан, Мукеш Тивари, Имран Кхан, Груша Капур, Вишваджит Прадхан, Амит Бехл
Описание: После развода с мужем у Санджаны остаются на попечении две дочери и младший брат. Чтобы как-то свести концы с концами, она продает родительский дом и переезжает в новый, на окраину города. Но с первой же ночи в новом доме начинают происходить странные вещи...

Доп. информация: Запись потока *.ts со спутника EUTELSAT 36A/B, 36° в.д., ремукс в *.mpg программой VideoReDo.
Сэмпл: http://sendfile.su/1021824
Качество видео: DVB
Формат видео: MPEG-PS
Видео: 720 x 576 (1.333) at 25.000 fps, MPEG 1662 Kbps,
Аудио: MPEG Audio at 192 Kbps, 2 channels, 48.0 KHz
MediaInfo
General
Complete name : D:\Naujas aplankas\Дуновение неизвестности.2003.rip.by.dantesas.mpg
Format : MPEG-PS
File size : 1.68 GiB
Duration : 2h 7mn
Overall bit rate mode : Variable
Overall bit rate : 1 891 Kbps
Video
ID : 224 (0xE0)
Format : MPEG Video
Format version : Version 2
Format profile : Main@Main
Format settings, BVOP : Yes
Format settings, Matrix : Custom
Format settings, GOP : M=3, N=24
Duration : 2h 7mn
Bit rate mode : Variable
Bit rate : 1 662 Kbps
Maximum bit rate : 15.0 Mbps
Width : 720 pixels
Height : 576 pixels
Display aspect ratio : 4:3
Frame rate : 25.000 fps
Standard : PAL
Color space : YUV
Chroma subsampling : 4:2:0
Bit depth : 8 bits
Scan type : Interlaced
Scan order : Top Field First
Compression mode : Lossy
Bits/(Pixel*Frame) : 0.160
Stream size : 1.48 GiB (88%)
Audio
ID : 192 (0xC0)
Format : MPEG Audio
Format version : Version 1
Format profile : Layer 2
Duration : 2h 7mn
Bit rate mode : Constant
Bit rate : 192 Kbps
Channel(s) : 2 channels
Sampling rate : 48.0 KHz
Compression mode : Lossy
Delay relative to video : 134ms
Stream size : 175 MiB (10%)
Скриншот c названием фильма Скриншоты
Скачать

Скачать торрент!

Как скачивать? · Что такое торрент? · Рейтинг и ограничения

Сайт не распространяет и не хранит электронные версии произведений, а лишь предоставляет доступ к создаваемому пользователями каталогу ссылок на торрент-файлы, которые содержат только списки хеш-сумм

[Профиль] [ЛС]

Ботагоз

Стаж: 8 месяцев 27 дней

Сообщений: 2

Пост Пост: #2 от 15-Мар-2017 14:36 (спустя 2 года 6 месяцев)

[Цитировать]

dunovenie neizvestnosti.2003.rip.by.dantesas.mpg 1.67 GB (1803837440)
[Профиль] [ЛС]

Ботагоз

Стаж: 8 месяцев 27 дней

Сообщений: 2

Пост Пост: #3 от 15-Мар-2017 14:43 (спустя 7 минут)

[Цитировать]

как я могу поднять рейтинг
[Профиль] [ЛС]

hotdog09

Стаж: 7 месяцев 21 день

Сообщений: 1

Пост Пост: #4 от 20-Апр-2017 09:10 (спустя 1 месяц 4 дня)

[Цитировать]

Спасибо за информацию
[Профиль] [ЛС]
Показать сообщения:    
Ответить на тему

Текущее время: Сегодня 08:40

Часовой пояс: GMT + 4



Вы не можете начинать темы
Вы не можете отвечать на сообщения
Вы не можете редактировать свои сообщения
Вы не можете удалять свои сообщения
Вы не можете голосовать в опросах
Вы не можете прикреплять файлы к сообщениям
Вы не можете скачивать файлы