Эпатаж / Shock Value (Дуглас Рат / Douglas Rath) [2014, США, триллер, ужасы, чёрная комедия, WEB-DL 720p] MVO (Колобок) + Sub Rus + Original Eng

Ответить на тему
 
Автор Сообщение

user ®

Стаж: 7 лет 7 месяцев

Сообщений: 20008

Пост Пост: #1 от 12-Сен-2014 23:25

[Цитировать]

Эпатаж / Shock Value
Страна: США
Жанр: триллер, ужасы, чёрная комедия
Год выпуска: 2014
Продолжительность: 01:29:34
Перевод: Любительский (многоголосый закадровый) Колобок
Cубтитры: русские Antonio
Оригинальная аудиодорожка: английский
Режиссер: Дуглас Рат / Douglas Rath
В ролях: Зак Хадсон, Энтони Браво, Жанелль Одэ, Мишель Кэмпбелл, Уилл Брандт, Малкольм МакДауэлл, Рик Шапиро, Стивен Дж. Оливер, Шоун Вудс, Джо Фаркас
Описание: Не слишком успешный режиссёр фильмов ужасов, став случайным свидетелем убийств голливудского маньяка, решает сделать его звездой своего нового фильма. Результат выходит несколько неожиданным...
Доп. информация: Перевод: Antonio
Роли озвучивали: Antonio, den904, Александр Харченко, DeadSno & Ворон

Сэмпл: https://www.sendspace.com/file/n2pwgi
Тип релиза: WEB-DL 720p
Контейнер: MKV
Видео: MPEG4 Video (H264) 1280x532 23.98fps 3 908 Kbps
Аудио 1: Dolby AC3 48000Hz 6 Audio Channel 384Kbps [русский]
Аудио 2: Dolby AC3 48000Hz 6 Audio Channel 384Kbps [английский]
Формат субтитров: softsub (SRT)
MediaInfo
General
Unique ID : 250481785303110549561561876815404740235 (0xBC71097E5452F2FFAD14FDEEDAFE2E8B)
Complete name : D:\TORRENTS\Shock Value.mkv
Format : Matroska
Format version : Version 2
File size : 2.98 GiB
Duration : 1h 29mn
Overall bit rate : 4 771 Kbps
Encoded date : UTC 2014-09-11 09:13:47
Writing application : mkvmerge v4.0.0 ('The Stars were mine') built on Jun 6 2010 16:18:42
Writing library : libebml v1.0.0 + libmatroska v1.0.0
Video
ID : 1
Format : AVC
Format/Info : Advanced Video Codec
Format profile : Main@L3.1
Format settings, CABAC : No
Format settings, ReFrames : 2 frames
Codec ID : V_MPEG4/ISO/AVC
Duration : 1h 29mn
Bit rate : 3 908 Kbps
Width : 1 280 pixels
Height : 532 pixels
Display aspect ratio : 2.40:1
Frame rate mode : Constant
Frame rate : 23.976 fps
Color space : YUV
Chroma subsampling : 4:2:0
Bit depth : 8 bits
Scan type : Progressive
Bits/(Pixel*Frame) : 0.239
Stream size : 2.45 GiB (82%)
Language : English
Default : No
Forced : No
Color primaries : BT.709
Transfer characteristics : BT.709
Matrix coefficients : BT.709
Audio #1
ID : 2
Format : AC-3
Format/Info : Audio Coding 3
Mode extension : CM (complete main)
Format settings, Endianness : Big
Codec ID : A_AC3
Duration : 1h 29mn
Bit rate mode : Constant
Bit rate : 384 Kbps
Channel(s) : 6 channels
Channel positions : Front: L C R, Side: L R, LFE
Sampling rate : 48.0 KHz
Bit depth : 16 bits
Compression mode : Lossy
Stream size : 246 MiB (8%)
Title : Kolobok
Language : Russian
Default : Yes
Forced : Yes
Audio #2
ID : 3
Format : AC-3
Format/Info : Audio Coding 3
Mode extension : CM (complete main)
Format settings, Endianness : Big
Codec ID : A_AC3
Duration : 1h 29mn
Bit rate mode : Constant
Bit rate : 384 Kbps
Channel(s) : 6 channels
Channel positions : Front: L C R, Side: L R, LFE
Sampling rate : 48.0 KHz
Bit depth : 16 bits
Compression mode : Lossy
Stream size : 246 MiB (8%)
Title : Original
Language : English
Default : No
Forced : No
Text
ID : 4
Format : UTF-8
Codec ID : S_TEXT/UTF8
Codec ID/Info : UTF-8 Plain Text
Title : Antonio
Language : Russian
Default : No
Forced : No
Menu
00:00:00.000 : en:Chapter 1
00:10:45.000 : en:Chapter 2
00:23:20.000 : en:Chapter 3
00:31:03.000 : en:Chapter 4
00:46:25.000 : en:Chapter 5
00:59:05.000 : en:Chapter 6
01:08:32.000 : en:Chapter 7
01:26:08.000 : en:Chapter 8
Скриншоты
Скачать

Скачать торрент!

Как скачивать? · Что такое торрент? · Рейтинг и ограничения

Сайт не распространяет и не хранит электронные версии произведений, а лишь предоставляет доступ к создаваемому пользователями каталогу ссылок на торрент-файлы, которые содержат только списки хеш-сумм

[Профиль] [ЛС]
Показать сообщения:    
Ответить на тему

Текущее время: Сегодня 16:11

Часовой пояс: GMT + 4



Вы не можете начинать темы
Вы не можете отвечать на сообщения
Вы не можете редактировать свои сообщения
Вы не можете удалять свои сообщения
Вы не можете голосовать в опросах
Вы не можете прикреплять файлы к сообщениям
Вы не можете скачивать файлы