Эпатаж / Shock value (Дуглас Рат / Douglas Rath) [2014, США, триллер, ужасы, чёрная комедия, WEB-DLRip] MVO (Колобок)

Ответить на тему
 
Автор Сообщение

user ®

Стаж: 7 лет 7 месяцев

Сообщений: 20008

Пост Пост: #1 от 12-Сен-2014 23:25

[Цитировать]

Эпатаж / Shock value
Страна: США
Жанр: триллер, ужасы, чёрная комедия
Год выпуска: 2014
Продолжительность: 01:29:34
Перевод: Любительский (многоголосый закадровый) Колобок
Cубтитры: нет
Оригинальная аудиодорожка: нет
Режиссер: Дуглас Рат / Douglas Rath
В ролях: Зак Хадсон, Энтони Браво, Жанелль Одэ, Мишель Кэмпбелл, Уилл Брандт, Малкольм МакДауэлл, Рик Шапиро, Стивен Дж. Оливер, Шоун Вудс, Джо Фаркас
Описание: Не слишком успешный режиссёр фильмов ужасов, став случайным свидетелем убийств голливудского маньяка, решает сделать его звездой своего нового фильма. Результат выходит несколько неожиданным...
Доп. информация: Перевод: Antonio
Роли озвучивали: Antonio, den904, Александр Харченко, DeadSno & Ворон

Сэмпл: https://www.sendspace.com/file/eoifsm
Качество видео: WEB-DLRip
Формат видео: AVI
Видео: DivX 5 720x304 23.98fps 902Kbps
Аудио: Dolby AC3 48000Hz stereo 192Kbps
MediaInfo
General
Complete name : D:\TORRENTS\Эпатаж.avi
Format : AVI
Format/Info : Audio Video Interleave
File size : 707 MiB
Duration : 1h 29mn
Overall bit rate : 1 104 Kbps
Video
ID : 0
Format : MPEG-4 Visual
Format profile : Simple@L1
Format settings, BVOP : No
Format settings, QPel : No
Format settings, GMC : No warppoints
Format settings, Matrix : Default (MPEG)
Codec ID : DX50
Codec ID/Hint : DivX 5
Duration : 1h 29mn
Bit rate : 903 Kbps
Width : 720 pixels
Height : 304 pixels
Display aspect ratio : 2.35:1
Frame rate : 23.976 fps
Color space : YUV
Chroma subsampling : 4:2:0
Bit depth : 8 bits
Scan type : Progressive
Compression mode : Lossy
Bits/(Pixel*Frame) : 0.172
Stream size : 578 MiB (82%)
Writing library : Lavc53.42.0
Audio
ID : 1
Format : AC-3
Format/Info : Audio Coding 3
Mode extension : CM (complete main)
Format settings, Endianness : Big
Codec ID : 2000
Duration : 1h 29mn
Source duration : 1h 29mn
Bit rate mode : Constant
Bit rate : 192 Kbps
Channel(s) : 2 channels
Channel positions : Front: L R
Sampling rate : 48.0 KHz
Bit depth : 16 bits
Compression mode : Lossy
Stream size : 123 MiB (17%)
Alignment : Aligned on interleaves
Interleave, duration : 42 ms (1.00 video frame)
Скриншот c названием фильма Скриншоты
Скачать

Скачать торрент!

Как скачивать? · Что такое торрент? · Рейтинг и ограничения

Сайт не распространяет и не хранит электронные версии произведений, а лишь предоставляет доступ к создаваемому пользователями каталогу ссылок на торрент-файлы, которые содержат только списки хеш-сумм

[Профиль] [ЛС]
Показать сообщения:    
Ответить на тему

Текущее время: Сегодня 20:07

Часовой пояс: GMT + 4



Вы не можете начинать темы
Вы не можете отвечать на сообщения
Вы не можете редактировать свои сообщения
Вы не можете удалять свои сообщения
Вы не можете голосовать в опросах
Вы не можете прикреплять файлы к сообщениям
Вы не можете скачивать файлы