Годзилла / Godzilla (Гарет Эдвардс / Gareth Edwards) [2014, США, Фантастика, боевик, триллер, BDRip] Dub

Ответить на тему
 
Автор Сообщение

user ®

Стаж: 7 лет 7 месяцев

Сообщений: 20008

Пост Пост: #1 от 12-Сен-2014 13:55

[Цитировать]

Годзилла / Godzilla- Год выпуска: 2014
Выпущено: США, Япония / Warner Bros. Pictures
Жанр: фантастика, боевик, триллер
Продолжительность: 02:03:07
Перевод: Профессиональный (полное дублирование) BD CEE
Cубтитры: нет-Режиссер:
Гарет Эдвардс / Gareth Edwards-В ролях:
Аарон Тейлор-Джонсон (Ford Brody), Кен Ватанабе (Dr. Ishiro Serizawa), Элизабет Олсен (Elle Brody), Салли Хокинс (Vivienne Graham), Брайан Крэнстон (Joe Brody), Дэвид Стрэтэйрн (Admiral William Stenz), Ричард Т. Джонс (Captain Russell Hampton), Карсон Болд (Sam Brody), Жюльет Бинош (Sandra Brody), Виктор Расук (Sergeant Tre Morales), С.Дж. Адамс (Young Ford), Патрик Сабонгуй (Lieutenant Commander Marcus Waltz)-Описание:
Человечество случайно разбудило гигантское древнее существо, что повлекло за собой ужасающие последствия…-Релиз групп [url=http://***/forum/viewtopic.php?t=1677970] [/url] | | IMDB | КиноПоиск | Сэмпл |-Качество: BDRip [BDRemux | 1080p | HDCLUB]
Формат: AVI
Видео: 720x304 (2.37:1), 23.976 fps, XviD build 73 ~2081 kbps avg, 0.40 bit/pixel
Аудио: 48 kHz, AC3 Dolby Digital, 3/2 (L,C,R,l,r) + LFE ch, ~448.00 kbps avg
-Скриншоты MediaInfo
General
Complete name                            : D:\Godzilla_2014_BDRip_[2.18]_by_Dalemake.avi
Format                                   : AVI
Format/Info                              : Audio Video Interleavе
Format profile                           : OpenDML
File size                                : 2.18 GiB
Duration                                 : 2h 3mn
Overall bit rate                         : 2 537 Kbps
Writing application                      : VirtualDubMod 1.5.10.3 | www.virtualdub-fr.org || (build 2550/release)
Writing library                          : VirtualDubMod build 2550/release
Video
ID                                       : 0
Format                                   : MPEG-4 Visual
Format profile                           : Advanced Simple@L5
Format settings, BVOP                    : 1
Format settings, QPel                    : No
Format settings, GMC                     : No warppoints
Format settings, Matrix                  : Custom
Codec ID                                 : XVID
Codec ID/Hint                            : XviD
Duration                                 : 2h 3mn
Bit rate                                 : 2 077 Kbps
Width                                    : 720 pixels
Height                                   : 304 pixels
Display aspect ratio                     : 2.35:1
Frame rate                               : 23.976 fps
Color space                              : YUV
Chroma subsampling                       : 4:2:0
Bit depth                                : 8 bits
Scan type                                : Progressive
Compression mode                         : Lossy
Bits/(Pixel*Frame)                       : 0.396
Stream size                              : 1.79 GiB (82%)
Writing library                          : XviD 73
Audio
ID                                       : 1
Format                                   : AC-3
Format/Info                              : Audio Coding 3
Mode extension                           : CM (complete main)
Format settings, Endianness              : Big
Codec ID                                 : 2000
Duration                                 : 2h 3mn
Bit rate mode                            : Constant
Bit rate                                 : 448 Kbps
Channel(s)                               : 6 channels
Channel positions                        : Front: L C R, Side: L R, LFE
Sampling rate                            : 48.0 KHz
Bit depth                                : 16 bits
Compression mode                         : Lossy
Stream size                              : 395 MiB (18%)
Alignment                                : Split accross interleaves
Interleave, duration                     : 42 ms (1.00 video frame)
Interleave, preload duration             : 500 ms
-
Скачать

Скачать торрент!

Как скачивать? · Что такое торрент? · Рейтинг и ограничения

Сайт не распространяет и не хранит электронные версии произведений, а лишь предоставляет доступ к создаваемому пользователями каталогу ссылок на торрент-файлы, которые содержат только списки хеш-сумм

[Профиль] [ЛС]
Показать сообщения:    
Ответить на тему

Текущее время: Сегодня 12:05

Часовой пояс: GMT + 4



Вы не можете начинать темы
Вы не можете отвечать на сообщения
Вы не можете редактировать свои сообщения
Вы не можете удалять свои сообщения
Вы не можете голосовать в опросах
Вы не можете прикреплять файлы к сообщениям
Вы не можете скачивать файлы