Миллион способов потерять голову / A Million Ways to Die in the West (Сет МакФарлейн / Seth MacFarlane) [2014, США, комедия, вестерн, BDRip 720p] [Theatrical Cut] Dub + MVO (FiliZa Studio) + Sub Rus, Eng + Original Eng

Ответить на тему
 
Автор Сообщение

user ®

Стаж: 7 лет 7 месяцев

Сообщений: 20008

Пост Пост: #1 от 12-Сен-2014 00:30

[Цитировать]

Миллион способов потерять голову / A Million Ways to Die in the West Страна: США
Студия: Bluegrass Films, Fuzzy Door Productions, Media Rights Capital
Жанр: комедия, вестерн
Год выпуска: 2014
Продолжительность: 01:56:01
Перевод 1: Профессиональный (дублированный)BD CEE
Перевод 2: Профессиональный (многоголосый закадровый) FiliZa Studio
Cубтитры: русские (BD CEE), английские
Оригинальная аудиодорожка: английский
Режиссер: Сет МакФарлейн / Seth MacFarlane
В ролях: Сет МакФарлейн, Шарлиз Терон, Аманда Сайфред, Лиам Нисон, Джованни Рибизи, Нил Патрик Харрис, Сара Силверман, Кристофер Хэйген, Уэс Стьюди, Мэтт Кларк
Описание: Угораздило же влюбиться не в том месте и не в то время. Здесь хамят в ресторанах, о горячей воде слагают легенды, да и с транспортом полный коллапс. Но у таинственной незнакомки отменная фигура, да и стреляет она без промаха. Кто же по своей воле откажется от такой красотки?

Тип релиза: BDRip 720p[HDAccess]
Контейнер: MKV
Видео: AVC, 1280x534, 6137kbps, 23.976 fps
Аудио 1: Russian: 48 kHz, AC3, 3/2 (L,C,R,l,r) + LFE ch, ~448.00 kbps avg |Blu-rayCEE|
Аудио 2: Russian: 48 kHz, AC3, 2/0 (L,R) ch, ~192.00 kbps avg |FiliZa Studio|
Аудио 3: English: 48 kHz, AC3, 3/2 (L,C,R,l,r) + LFE ch, ~640.00 kbps |Original|
Чаптеры:есть

x264 log
x264 ...:
frame I:1844 Avg QP:14.05 size:134415
frame P:37141 Avg QP:14.88 size: 50148
frame B:127752 Avg QP:15.66 size: 25238
consecutive B-frames: 2.2% 1.9% 11.7% 22.8% 19.0% 35.4% 3.7% 1.4% 1.1% 0.3% 0.2% 0.4%
MediaInfo
General
Unique ID : 234346335003669135975779100964244417848 (0xB04D765F75A41120995935281B2FED38)
Complete name : D:\рипы\A.Million.Ways.to.Die.in.the.West.2014.THEATRICAL.720p.BluRay.DTS.x264-Talian-.mkv
Format : Matroska
Format version : Version 2
File size : 6.01 GiB
Duration : 1h 56mn
Overall bit rate : 7 413 Kbps
Movie name : -Talian-
Encoded date : UTC 2014-09-10 21:00:09
Writing application : mkvmerge v5.7.0 ('The Whirlwind') built on Jul 8 2012 20:08:51
Writing library : libebml v1.2.3 + libmatroska v1.3.0
Video
ID : 1
Format : AVC
Format/Info : Advanced Video Codec
Format profile : High@L4.1
Format settings, CABAC : Yes
Format settings, ReFrames : 12 frames
Codec ID : V_MPEG4/ISO/AVC
Duration : 1h 56mn
Bit rate : 5 986 Kbps
Width : 1 280 pixels
Height : 534 pixels
Display aspect ratio : 2.40:1
Frame rate : 23.976 fps
Color space : YUV
Chroma subsampling : 4:2:0
Bit depth : 8 bits
Scan type : Progressive
Bits/(Pixel*Frame) : 0.365
Stream size : 4.85 GiB (81%)
Title : HDAccess
Writing library : x264 core 142 r2453kMod ea0ca51
Encoding settings : cabac=1 / ref=12 / deblock=1:-3:-3 / analyse=0x3:0x133 / me=umh / subme=11 / psy=1 / fade_compensate=0.00 / psy_rd=1.01:0.00 / mixed_ref=1 / me_range=24 / chroma_me=1 / trellis=2 / 8x8dct=1 / cqm=0 / deadzone=21,11 / fast_pskip=1 / chroma_qp_offset=-2 / threads=12 / lookahead_threads=3 / sliced_threads=0 / nr=0 / decimate=1 / interlaced=0 / bluray_compat=0 / constrained_intra=0 / fgo=0 / bframes=11 / b_pyramid=2 / b_adapt=2 / b_bias=0 / direct=3 / weightb=1 / open_gop=0 / weightp=2 / keyint=230 / keyint_min=23 / scenecut=40 / intra_refresh=0 / rc_lookahead=40 / rc=crf / mbtree=0 / crf=15.3000 / qcomp=0.75 / qpmin=0 / qpmax=69 / qpstep=4 / vbv_maxrate=50000 / vbv_bufsize=62500 / crf_max=0.0 / nal_hrd=none / filler=0 / ip_ratio=1.20 / pb_ratio=1.11 / aq=2:0.90
Language : English
Default : Yes
Forced : No
Matrix coefficients : BT.709-5, BT.1361, IEC 61966-2-4 709, SMPTE RP177
Audio #1
ID : 2
Format : AC-3
Format/Info : Audio Coding 3
Mode extension : CM (complete main)
Format settings, Endianness : Big
Codec ID : A_AC3
Duration : 1h 56mn
Bit rate mode : Constant
Bit rate : 448 Kbps
Channel(s) : 6 channels
Channel positions : Front: L C R, Side: L R, LFE
Sampling rate : 48.0 KHz
Bit depth : 16 bits
Compression mode : Lossy
Stream size : 372 MiB (6%)
Title : DUB-BD CEE
Language : Russian
Default : Yes
Forced : No
Audio #2
ID : 3
Format : AC-3
Format/Info : Audio Coding 3
Mode extension : CM (complete main)
Format settings, Endianness : Big
Codec ID : A_AC3
Duration : 1h 56mn
Bit rate mode : Constant
Bit rate : 192 Kbps
Channel(s) : 2 channels
Channel positions : Front: L R
Sampling rate : 48.0 KHz
Bit depth : 16 bits
Compression mode : Lossy
Stream size : 159 MiB (3%)
Title : MVO-FiliZa Studio
Language : Russian
Default : No
Forced : No
Audio #3
ID : 4
Format : AC-3
Format/Info : Audio Coding 3
Mode extension : CM (complete main)
Format settings, Endianness : Big
Codec ID : A_AC3
Duration : 1h 56mn
Bit rate mode : Constant
Bit rate : 640 Kbps
Channel(s) : 6 channels
Channel positions : Front: L C R, Side: L R, LFE
Sampling rate : 48.0 KHz
Bit depth : 16 bits
Compression mode : Lossy
Stream size : 531 MiB (9%)
Title : Original
Language : English
Default : No
Forced : No
Text #1
ID : 5
Format : UTF-8
Codec ID : S_TEXT/UTF8
Codec ID/Info : UTF-8 Plain Text
Title : Sub-BD CEE
Language : Russian
Default : No
Forced : No
Text #2
ID : 6
Format : UTF-8
Codec ID : S_TEXT/UTF8
Codec ID/Info : UTF-8 Plain Text
Title : Sub-SDH
Language : English
Default : No
Forced : No
Menu
00:00:00.000 : en:00:00:00.000
00:03:02.140 : en:00:03:02.140
00:08:25.797 : en:00:08:25.797
00:12:26.996 : en:00:12:26.996
00:18:24.895 : en:00:18:24.895
00:23:06.176 : en:00:23:06.176
00:28:13.442 : en:00:28:13.442
00:35:10.442 : en:00:35:10.442
00:39:33.705 : en:00:39:33.705
00:44:59.822 : en:00:44:59.822
00:50:14.470 : en:00:50:14.470
00:58:14.533 : en:00:58:14.533
01:05:44.941 : en:01:05:44.941
01:13:28.070 : en:01:13:28.070
01:17:55.129 : en:01:17:55.129
01:23:44.561 : en:01:23:44.561
01:27:24.656 : en:01:27:24.656
01:35:27.889 : en:01:35:27.889
01:42:52.374 : en:01:42:52.374
01:49:42.951 : en:01:49:42.951
Скриншоты
Source vs Encode


Скачать

Скачать торрент!

Как скачивать? · Что такое торрент? · Рейтинг и ограничения

Сайт не распространяет и не хранит электронные версии произведений, а лишь предоставляет доступ к создаваемому пользователями каталогу ссылок на торрент-файлы, которые содержат только списки хеш-сумм

[Профиль] [ЛС]
Показать сообщения:    
Ответить на тему

Текущее время: Сегодня 08:13

Часовой пояс: GMT + 4



Вы не можете начинать темы
Вы не можете отвечать на сообщения
Вы не можете редактировать свои сообщения
Вы не можете удалять свои сообщения
Вы не можете голосовать в опросах
Вы не можете прикреплять файлы к сообщениям
Вы не можете скачивать файлы