Тёмная долина / Das finstere Tal (Андреас Прохазка / Andreas Prochaska) [2014, Германия, Австрия, драма, триллер, вестерн, HDRip] Sub Rus + Original Ger

Ответить на тему
 
Автор Сообщение

user ®

Стаж: 7 лет 7 месяцев

Сообщений: 20008

Пост Пост: #1 от 11-Сен-2014 21:20

[Цитировать]

Тёмная долина / Das finstere Tal
Страна: Германия, Австрия
Жанр: драма, триллер, вестерн
Год выпуска: 2014
Продолжительность: 01:54:44
Перевод: Субтитры
Cубтитры: русские
Оригинальная аудиодорожка: немецкий
Режиссер: Андреас Прохазка / Andreas Prochaska
В ролях: Сэм Райли
Тобиас Моретти
Хельмут Хеуслер
Мартин Лойтгеб
Йоханнес Николусси
Клеменс Шик
Флориан Брюкнер
Ганс-Михаэль Реберг
Эрвин Штайнхауэр
Франц Ксавер Брюкнер
Описание: Тайными путями одинокий всадник пробирается в маленький городок высоко в Альпах. Никто не знает, откуда прибыл незнакомец и чего он хочет. Но в одном жители городка уверены — они не хотят, чтобы он оставался здесь.
Доп. информация: http://www.kinopoisk.ru/film/733837/
http://www.imdb.com/title/tt2650978/
Сэмпл: http://multi-up.com/998321
Качество видео: HDRip
Формат видео: MKV
Видео: MPEG4/ISO/AVC 584kbps 24fps 0,111 bit/pix 720x306
Аудио: 48 khz A_AC3 384kbps 5+1 channels
Формат субтитров: softsub (SRT)
Доп. информация о субтитрах: перевод kon2011
скрытый текст
3
00:01:35,080 --> 00:01:36,290
Открывай!
4
00:01:40,700 --> 00:01:41,940
Эй, ты, открывай!
5
00:01:51,540 --> 00:01:54,660
Мы кое-кого ищем.
6
00:03:07,580 --> 00:03:11,150
Есть вещи, о которых
нельзя говорить.
7
00:03:11,250 --> 00:03:14,940
О том, что случилось давно,
много лет назад.
8
00:03:15,950 --> 00:03:19,450
Но то, что о них нельзя
говорить, не означает,...
9
00:03:19,580 --> 00:03:21,820
...что это можно забыть.
10
00:03:24,000 --> 00:03:28,410
Есть именно такие вещи,
которые забыть нельзя никогда.
11
00:06:30,750 --> 00:06:35,120
Никто не знает, как этот чужак
нашел к нам дорогу.
12
00:06:36,080 --> 00:06:39,240
Потому что о том, что здесь,
в горной долине...
13
00:06:39,410 --> 00:06:43,030
...кто-то живет,
люди внизу почти забыли.
14
00:06:43,120 --> 00:06:46,320
Но людей в долине
это устраивало.
MediaInfo
Общее
Уникальный идентификатор : 250541198097146949852545742894172452591 (0xBC7C7AC5379777368CEC4E39EBC7B6EF)
Полное имя : F:\Das.finstere.Tal.2014.German.BDRip.x264-CONTRiBUTiON (1).mkv
Формат : Matroska
Версия формата : Version 4 / Version 2
Размер файла : 811 Мбайт
Продолжительность : 1 ч. 54 м.
Общий поток : 988 Кбит/сек
Дата кодирования : UTC 2014-09-11 12:25:54
Программа кодирования : mkvmerge v6.7.0 ('Back to the Ground') 64bit built on Jan 8 2014 15:10:52
Библиотека кодирования : libebml v1.3.0 + libmatroska v1.4.1
Видео
Идентификатор : 1
Формат : AVC
Формат/Информация : Advanced Video Codec
Профиль формата : High@L3.1
Параметр CABAC формата : Да
Параметр ReFrames формата : 5 кадров
Идентификатор кодека : V_MPEG4/ISO/AVC
Продолжительность : 1 ч. 54 м.
Битрейт : 584 Кбит/сек
Ширина : 720 пикселей
Высота : 306 пикселей
Соотношение сторон : 2,35:1
Режим частоты кадров : Постоянный
Частота кадров : 24,000 кадра/сек
Цветовое пространство : YUV
Субдискретизация насыщенности : 4:2:0
Битовая глубина : 8 бит
Тип развёртки : Прогрессивная
Бит/(Пиксели*Кадры) : 0.111
Размер потока : 480 Мбайт (59%)
Библиотека кодирования : x264 core 142 r2453 ea0ca51
Настройки программы : cabac=1 / ref=5 / deblock=1:-2:-2 / analyse=0x3:0x113 / me=umh / subme=7 / psy=1 / psy_rd=1.00:0.15 / mixed_ref=1 / me_range=16 / chroma_me=1 / trellis=1 / 8x8dct=1 / cqm=0 / deadzone=21,11 / fast_pskip=0 / chroma_qp_offset=-3 / threads=12 / lookahead_threads=2 / sliced_threads=0 / nr=0 / decimate=1 / interlaced=0 / bluray_compat=0 / constrained_intra=0 / bframes=3 / b_pyramid=2 / b_adapt=2 / b_bias=0 / direct=3 / weightb=1 / open_gop=0 / weightp=2 / keyint=230 / keyint_min=23 / scenecut=40 / intra_refresh=0 / rc_lookahead=40 / rc=crf / mbtree=1 / crf=19.0 / qcomp=0.60 / qpmin=0 / qpmax=69 / qpstep=4 / ip_ratio=1.40 / aq=1:0.70
Язык : English
Default : Да
Forced : Нет
Коэффициенты матрицы : BT.709
Аудио
Идентификатор : 2
Формат : AC-3
Формат/Информация : Audio Coding 3
Расширение режима : CM (complete main)
Параметр Endianness формата : Big
Идентификатор кодека : A_AC3
Продолжительность : 1 ч. 54 м.
Вид битрейта : Постоянный
Битрейт : 384 Кбит/сек
Каналы : 6 каналов
Расположение каналов : Front: L C R, Side: L R, LFE
Частота : 48,0 КГц
Битовая глубина : 16 бит
Метод сжатия : С потерями
Размер потока : 315 Мбайт (39%)
Заголовок : AC3
Язык : German
Default : Да
Forced : Нет
Текст
Идентификатор : 3
Формат : UTF-8
Идентификатор кодека : S_TEXT/UTF8
Идентификатор кодека/Информация : UTF-8 Plain Text
Default : Да
Forced : Нет
Скриншот c названием фильма Скриншоты
Скачать

Скачать торрент!

Как скачивать? · Что такое торрент? · Рейтинг и ограничения

Сайт не распространяет и не хранит электронные версии произведений, а лишь предоставляет доступ к создаваемому пользователями каталогу ссылок на торрент-файлы, которые содержат только списки хеш-сумм

[Профиль] [ЛС]
Показать сообщения:    
Ответить на тему

Текущее время: Сегодня 16:09

Часовой пояс: GMT + 4



Вы не можете начинать темы
Вы не можете отвечать на сообщения
Вы не можете редактировать свои сообщения
Вы не можете удалять свои сообщения
Вы не можете голосовать в опросах
Вы не можете прикреплять файлы к сообщениям
Вы не можете скачивать файлы