Кайт / Kite (Ральф Зиман / Ralph Ziman) [2013, США, ЮАР, боевик, триллер, WEB-DLRip] Dub

Ответить на тему
 
Автор Сообщение

user ®

Стаж: 7 лет 7 месяцев

Сообщений: 20008

Пост Пост: #1 от 11-Сен-2014 07:50

[Цитировать]

Кайт / Kite
Страна: США, ЮАР
Жанр: боевик, триллер
Год выпуска: 2014
Продолжительность: 01:29:50
Перевод: Профессиональный (дублированный)
Cубтитры: нет
Оригинальная аудиодорожка: нет
Режиссер: Ральф Зиман / Ralph Ziman
В ролях: Индиа Айсли
Сэмюэл Л. Джексон
Каллэн МакОлифф
Карл Бьюкс
Деон Лотз
Девилль Ванник
Рассел Савадье
Лайонел Ньютон
Кеси Иток
Зейн Мис
Описание: Когда отец девушки по имени Кайт, полицейский, гибнет от рук мафии, она клянется найти и покарать виновных. Ее опекуном в этом нелегком деле становится Карл, напарник ее отца. Полная решимости отомстить за смерть родных, Кайт под руководством Карла становится холодным и бескомпромиссным убийцей. У ее жертв нет шанса на выживание, Кайт справляется с ними легко и жестоко. Появление в ее жизни ловкого и бесстрашного молодого человека резко меняет жизнь Кайт, которая начинает понимать, что и убийце не чужды чувства…
Доп. информация: http://www.kinopoisk.ru/film/622058/
http://www.imdb.com/title/tt2044801/
Сэмпл: http://multi-up.com/997983
Качество видео: WEB-DLRip
Формат видео: AVI
Видео: XviD build 50 24 fps 0.34 bit/pixel 1780 kb / s, 720x304
Аудио: 48 kHz AC3 Dolby Digital 3/2 (L,C,R,l,r) + LFE ch 384 kbps 1:29:50.833 / 246.77 Mb
MediaInfo
бщее
Полное имя : F:\Kait.2014.D.WEB-DLRip.1400MB.avi
Формат : AVI
Формат/Информация : Audio Video Interleave
Размер файла : 1,36 Гбайт
Продолжительность : 1 ч. 29 м.
Общий поток : 2173 Кбит/сек
Программа кодирования : VirtualDubMod 1.5.10.3 | www.virtualdub-fr.org || (build 2550/release)
Библиотека кодирования : VirtualDubMod build 2550/release
Видео
Идентификатор : 0
Формат : MPEG-4 Visual
Профиль формата : Advanced Simple@L5
Параметр BVOP формата : 2
Параметр QPel формата : Нет
Параметр GMC формата : Без точки перехода
Параметр матрицы формата : Default (MPEG)
Идентификатор кодека : XVID
Идентификатор кодека/Подсказка : XviD
Продолжительность : 1 ч. 29 м.
Битрейт : 1780 Кбит/сек
Ширина : 720 пикселей
Высота : 304 пикселя
Соотношение сторон : 2,35:1
Частота кадров : 24,000 кадра/сек
Цветовое пространство : YUV
Субдискретизация насыщенности : 4:2:0
Битовая глубина : 8 бит
Тип развёртки : Прогрессивная
Метод сжатия : С потерями
Бит/(Пиксели*Кадры) : 0.339
Размер потока : 1,12 Гбайт (82%)
Библиотека кодирования : XviD 1.2.1 (UTC 2008-12-04)
Аудио
Идентификатор : 1
Формат : AC-3
Формат/Информация : Audio Coding 3
Расширение режима : CM (complete main)
Параметр Endianness формата : Big
Идентификатор кодека : 2000
Продолжительность : 1 ч. 29 м.
Вид битрейта : Постоянный
Битрейт : 384 Кбит/сек
Каналы : 6 каналов
Расположение каналов : Front: L C R, Side: L R, LFE
Частота : 48,0 КГц
Битовая глубина : 16 бит
Метод сжатия : С потерями
Размер потока : 247 Мбайт (18%)
Выравнивание : Разделение по промежуткам
Продолжительность промежутка : 42 мс. (1,00 видеокадр)
Время предзагрузки промежутка : 500 мс.
Скриншот c названием фильма Скриншоты
Скачать

Скачать торрент!

Как скачивать? · Что такое торрент? · Рейтинг и ограничения

Сайт не распространяет и не хранит электронные версии произведений, а лишь предоставляет доступ к создаваемому пользователями каталогу ссылок на торрент-файлы, которые содержат только списки хеш-сумм

[Профиль] [ЛС]
Показать сообщения:    
Ответить на тему

Текущее время: Сегодня 18:11

Часовой пояс: GMT + 4



Вы не можете начинать темы
Вы не можете отвечать на сообщения
Вы не можете редактировать свои сообщения
Вы не можете удалять свои сообщения
Вы не можете голосовать в опросах
Вы не можете прикреплять файлы к сообщениям
Вы не можете скачивать файлы