7 убийц / 7 Assassins / Guang Hui Sui Yue (Эрик Цан / Eric Tsang, Хан Ень Ень / Hung Yan Yan) [2013, Китай, драма, боевик, приключения, HDRip] VO [Ворон]

Ответить на тему
 
Автор Сообщение

user ®

Стаж: 13 лет

Сообщений: 15071

Пост Пост: #1 от 11-Сен-2014 07:50

[Цитировать]

7 убийц / 7 Assassins / Guang Hui Sui Yue- -Страна: Китай
Жанр: драма, боевик, приключения
Год выпуска: 2013
Продолжительность: 01:42:30-Перевод: Одноголосый закадровый [Ворон]-Cубтитры: нет
Оригинальная аудиодорожка: нет
Режиссер: Эрик Цан / Eric Tsang, Хан Ень Ень / Hung Yan Yan
В ролях: Эрик Цан, Феликс Вонг, Гиги Люн, Тао Го, Саймон Ям, Кара Хуи, Ю О Сон, Рэй Луи, Ланг Ти...
Описание: Отряд мятежников под предводительством Те Юня в тайне перевозят золото собранное для закупки оружия за границей. После нападения бандитов золото было утеряно. Те Юнь и жители Золотой Долины под предводительством Мастера Мао решают помочь вернуть золото и разгромить Принца, тем самым пытаясь остановить угнетения народа.
Релиз от -
Сэмпл: http://multi-up.com/998196
Качество видео: HDRip
Формат видео: AVI
Видео: MPEG-4 Visual at 1587 Кбит/сек; 720 x 304 (2.368) at 24.000 fps
Аудио: AC-3 at 448 Кбит/сек; 6 каналов, 48,0 КГц
Автор -
MediaInfo
Общее
Полное имя : D:\Фильмы\Азиатские\7 убийц\7 Assassins.2013.HDRip.XviD.1400MB. rip by [Assassin's Creed].avi
Формат : AVI
Формат/Информация : Audio Video Interleave
Размер файла : 1,46 Гбайт
Продолжительность : 1 ч. 42 м.
Общий поток : 2044 Кбит/сек
Программа кодирования : VirtualDubMod 1.5.10.2 (build 2540/release)
Библиотека кодирования : VirtualDubMod build 2540/release
Видео
Идентификатор : 0
Формат : MPEG-4 Visual
Профиль формата : Advanced Simple@L5
Параметр BVOP формата : 1
Параметр QPel формата : Нет
Параметр GMC формата : Без точки перехода
Параметр матрицы формата : Default (MPEG)
Идентификатор кодека : XVID
Идентификатор кодека/Подсказка : XviD
Продолжительность : 1 ч. 42 м.
Битрейт : 1587 Кбит/сек
Ширина : 720 пикселей
Высота : 304 пикселя
Соотношение сторон : 2,35:1
Частота кадров : 24,000 кадра/сек
Цветовое пространство : YUV
Субдискретизация насыщенности : 4:2:0
Битовая глубина : 8 бит
Тип развёртки : Прогрессивная
Метод сжатия : С потерями
Бит/(Пиксели*Кадры) : 0.302
Размер потока : 1,14 Гбайт (78%)
Библиотека кодирования : XviD 1.2.1 (UTC 2008-12-04)
Аудио
Идентификатор : 1
Формат : AC-3
Формат/Информация : Audio Coding 3
Расширение режима : CM (complete main)
Параметр Endianness формата : Big
Идентификатор кодека : 2000
Продолжительность : 1 ч. 42 м.
Вид битрейта : Постоянный
Битрейт : 448 Кбит/сек
Каналы : 6 каналов
Расположение каналов : Front: L C R, Side: L R, LFE
Частота : 48,0 КГц
Битовая глубина : 16 бит
Метод сжатия : С потерями
Размер потока : 328 Мбайт (22%)
Выравнивание : Разделение по промежуткам
Продолжительность промежутка : 42 мс. (1,00 видеокадр)
Время предзагрузки промежутка : 500 мс.
Скриншот c названием фильма Скриншоты
Скачать

Скачать торрент! 7 убийц / 7 Assassins / Guang Hui Sui Yue (Эрик Цан / Eric Tsang, Хан Ень Ень / Hung Yan Yan) [2013, Китай, драма, боевик, приключения, HDRip] VO [Ворон]

Как скачивать? · Что такое торрент? · Рейтинг и ограничения

Сайт не распространяет и не хранит электронные версии произведений, а лишь предоставляет доступ к создаваемому пользователями каталогу ссылок на торрент-файлы, которые содержат только списки хеш-сумм

[Профиль] [ЛС]
Показать сообщения:    
Ответить на тему

Текущее время: Сегодня 11:09

Часовой пояс: GMT + 4



Вы не можете начинать темы
Вы не можете отвечать на сообщения
Вы не можете редактировать свои сообщения
Вы не можете удалять свои сообщения
Вы не можете голосовать в опросах
Вы не можете прикреплять файлы к сообщениям
Вы не можете скачивать файлы