Бог знает / Ram Jaane (Раджив Мехра / Rajiv Mehra) [1995, Индия, Боевик, криминал, DVDRip] MVO (Формат АВ)

Ответить на тему
 
Автор Сообщение

user ®

Стаж: 12 лет

Сообщений: 15092

Пост Пост: #1 от 11-Сен-2014 07:50

[Цитировать]

Бог знает / Ram Jaane
Страна: Индия
Жанр: Боевик, криминал
Год выпуска: 1995
Продолжительность: 02:42:19
Перевод: Профессиональный (многоголосый закадровый) Формат АВ
Cубтитры: нет
Режиссер: Раджив Мехра / Rajiv Mehra
В ролях: Шахрукх Кхан, Джухи Чавла, Вивек Мушран, Панкадж Капур, Пунит Иссар, Тинну Ананд, Девен Верма, Гульшан Гровер, Амрит Пал, Арун Бали
Описание: Фильм повествует о судьбе молодого парня, которого ещё в детстве бессердечная мать выбросила на улицу. Кто-то из добрых людей подобрал его и вырастил. Но он так и остался сиротой-беспризорником без имени. На вопрос: "Как тебя зовут?" - он отвечал так, как ответил на этот вопрос священник: "Ram Jaane", что означает в переводе с хинди "Бог знает". Как сложилась его жизнь: первая кража, тюрьма, первая безответная любовь, стремление завязать с прошлым... Удалось ли ему выбиться в люди?
Доп. информация: Исходник [url=http://***/forum/viewtopic.php?t=3543731]DVD-9[/url] (СПАСИБО! PARAMORE)
Сэмпл: http://multi-up.com/997695
Качество видео: DVDRip
Формат видео: AVI
Видео: XviD build 50, 688x368 (1.87:1), 23.976 fps, 1611 kbps avg
Аудио: AC3 Dolby Digital, 48 kHz, 2/0 (L,R) ch, 192.00 kbps avg
MediaInfo
General
Complete name : D:\Bog.znaet.1995.XviD.DVDRip-Dego.avi
Format : AVI
Format/Info : Audio Video Interleave
Format profile : OpenDML
File size : 2.05 GiB
Duration : 2h 42mn
Overall bit rate : 1 811 Kbps
Writing application : VirtualDubMod 1.5.10.2 (build 2540/release)
Writing library : VirtualDubMod build 2540/release
Video
ID : 0
Format : MPEG-4 Visual
Format profile : AdvancedSimple@L5
Format settings, BVOP : Yes
Format settings, QPel : No
Format settings, GMC : No warppoints
Format settings, Matrix : Custom
Codec ID : XVID
Codec ID/Hint : XviD
Duration : 2h 42mn
Bit rate : 1 606 Kbps
Width : 688 pixels
Height : 368 pixels
Display aspect ratio : 1.870
Frame rate : 23.976 fps
Resolution : 24 bits
Colorimetry : 4:2:0
Scan type : Progressive
Bits/(Pixel*Frame) : 0.265
Stream size : 1.82 GiB (89%)
Writing library : XviD 1.2.1 (UTC 2008-12-04)
Audio
ID : 1
Format : AC-3
Format/Info : Audio Coding 3
Codec ID : 2000
Duration : 2h 42mn
Bit rate mode : Constant
Bit rate : 192 Kbps
Channel(s) : 2 channels
Channel positions : L R
Sampling rate : 48.0 KHz
Stream size : 223 MiB (11%)
Alignment : Split accross interleaves
Interleave, duration : 42 ms (1.00 video frame)
Interleave, preload duration : 500 ms
Скриншоты Сравнения
[url=http://***/forum/viewtopic.php?t=274285]http://***/forum/viewtopic.php?t=274285[/url] => перевод другой - DVO (Арена)
Сэмпл мой http://multi-up.com/997695
Сэмпл с раздачи Даце http://multi-up.com/997696
Скачать

Скачать торрент! Бог знает / Ram Jaane (Раджив Мехра / Rajiv Mehra) [1995, Индия, Боевик, криминал, DVDRip] MVO (Формат АВ)

Как скачивать? · Что такое торрент? · Рейтинг и ограничения

Сайт не распространяет и не хранит электронные версии произведений, а лишь предоставляет доступ к создаваемому пользователями каталогу ссылок на торрент-файлы, которые содержат только списки хеш-сумм

[Профиль] [ЛС]
Показать сообщения:    
Ответить на тему

Текущее время: Сегодня 16:23

Часовой пояс: GMT + 4



Вы не можете начинать темы
Вы не можете отвечать на сообщения
Вы не можете редактировать свои сообщения
Вы не можете удалять свои сообщения
Вы не можете голосовать в опросах
Вы не можете прикреплять файлы к сообщениям
Вы не можете скачивать файлы