Варис Шах / Waris Shah: Ishq Daa Waaris ( Манодж Пундж / Manoj Punj) [2006, Индия, Драма, история, DVDRip] VO (Nastia) + Original + Sub Rus

Ответить на тему
 
Автор Сообщение

user ®

Стаж: 12 лет

Сообщений: 15092

Пост Пост: #1 от 11-Сен-2014 07:50

[Цитировать]

Варис Шах / Waris Shah: Ishq Daa Waaris-- Страна: Индия
Жанр: Драма, история
Год выпуска: 2006
Продолжительность: 02:18:19
Перевод: Одноголосый закадровый
Перевод субтитров: jyoti
Озвучка: Nastia
Cубтитры: Русские (на песни)
Оригинальная аудиодорожка: пенджабский--Режиссер: Манодж Пундж / Manoj Punj--В ролях: Гурдас Манн, Джухи Чавла, Дивья Датта, Сушант Сингх, Четана Дас, Гуркиртан, Мукеш Риши, Диба Бегум--Описание: Варис Шаха называли Шекспиром Пенджаба за его великую историю любви «Хир и Ранджха». Поэт-суфий, он воспел любовь к Богу через трагическую любовь двоих, которым было не суждено соединиться. Рассказывают, что в классическую трагедию Варис добавил собственные переживания из-за несбывшейся любви. «Варис Шах» - это дань почитания пенджабцев своему легендарному соотечественнику, который пел, когда петь было запрещено, и зарождал вкус к музыке даже в самых суровых служителях своей родины. Главную роль в этой экранизации исполнил знаменитый пенджабский поэт, певец, хореограф и актер Гурдас Манн, также написавший и исполнивший часть песен к фильму. И, как прежде в «Родине, ставшей чужбиной» и после в «Сукхмани», его партнершами снова стали Джухи Чавла и Дивья Датта.--Доп. информация: «Варис Шах» стал первым пенджабским фильмом, который попал в списки претендентов на «Оскара».--Благодарность:
larisa_k, за предоставленные материалы
jyoti, за перевод субтитров
Nastia, за озвучку фильма-Рип и сведение звука: pca1962--Релиз-группа:
Сэмпл: http://multi-up.com/997622
Качество видео: DVDRip
Формат видео: AVI
Видео: XviD, 720x304, 23.976 fps, 1231 kbps
Аудио: AC3, 48 kHz, 2.0 (stereo), 160 kbps (русский)
Аудио 2: MP3, 48 kHz, 2.0 (stereo), 128 kbps (пенджабский)
Формат субтитров: softsub (SRT)-
-
MediaInfo
=== Общие ===
Полное имя : Varis.Shah.2006.DVDRip.pca1962.avi
Формат : AVI
Описание формата : Audio Video Interleave
Размер файла : 1.48 Гб
Длительность : 2ч 18мин
Общий битрейт : 1 533 кбит/сек
Название фильма : Waris.Shah.2006
Director : pca1962
Жанр / стиль : Drama/History
Програмное обеспечение : VirtualDubMod 1.5.10.2 (build 2540/release)
Original source form/Name : Movie
=== Видео ===
ID (Идентификатор) : 0
Формат : MPEG-4 Visual
Профиль формата : Advanced Simple@L5
Параметр 'BVOP' : 1
Параметр 'QPel' : Нет
Параметр 'GMC' : No warppoints
Параметр 'Matrix' : Default (H.263)
Идентификатор кодека : XVID
Подпись кодека : XviD
Длительность : 2ч 18мин
Битрейт : 1 231 кбит/сек
Ширина кадра : 720 пикселей
Высота кадра : 304 пикселей
Соотношение сторон : 2.35:1
Частота кадров : 23.976 кадров/сек
Цветовое пространство : YUV
Субдискретизация насыщенности : 4:2:0
Глубина (разрядность) : 8 bits
Тип развертки : Прогрессивная
Режим сжатия : С потерями
Бит/(пиксель*кадр) : 0.235
Размер потока : 1.19 Гб (80%)
Кодирующая библиотека : XviD 1.2.1 (UTC 2008-12-04)
=== Аудио 1 ===
ID (Идентификатор) : 1
Формат : AC-3
Описание формата : Audio Coding 3
Mode extension : CM (complete main)
Идентификатор кодека : 2000
Длительность : 2ч 18мин
Тип битрейта : Постоянный
Битрейт : 160 кбит/сек
Канал(ы) : 2 каналов
Расположение каналов : Front: L R
Частота дискретизации : 48.0 кГц
Глубина (разрядность) : 16 bits
Режим сжатия : С потерями
Размер потока : 158 Мб (10%)
Расположение потока : Split accross interleaves
Период чередования : 42 мс (1.00 video frame)
Предварительная загрузка : 500 мс
=== Аудио 2 ===
ID (Идентификатор) : 2
Формат : MPEG Audio
Версия формата : Version 1
Профиль формата : Layer 3
Идентификатор кодека : 55
Подпись кодека : MP3
Длительность : 2ч 18мин
Тип битрейта : Постоянный
Битрейт : 128 кбит/сек
Канал(ы) : 2 каналов
Частота дискретизации : 48.0 кГц
Режим сжатия : С потерями
Размер потока : 127 Мб (8%)
Расположение потока : Aligned on interleaves
Период чередования : 42 мс (1.00 video frame)
Предварительная загрузка : 504 мс
Кодирующая библиотека : LAME3.99r
Параметры кодирования : -m s -V 4 -q 2 -lowpass 17 -b 128

-
-Скриншот c названием фильма Скриншоты
Скачать

Скачать торрент! Варис Шах / Waris Shah: Ishq Daa Waaris ( Манодж Пундж / Manoj Punj) [2006, Индия, Драма, история, DVDRip] VO (Nastia) + Original + Sub Rus

Как скачивать? · Что такое торрент? · Рейтинг и ограничения

Сайт не распространяет и не хранит электронные версии произведений, а лишь предоставляет доступ к создаваемому пользователями каталогу ссылок на торрент-файлы, которые содержат только списки хеш-сумм

[Профиль] [ЛС]
Показать сообщения:    
Ответить на тему

Текущее время: Сегодня 06:23

Часовой пояс: GMT + 4



Вы не можете начинать темы
Вы не можете отвечать на сообщения
Вы не можете редактировать свои сообщения
Вы не можете удалять свои сообщения
Вы не можете голосовать в опросах
Вы не можете прикреплять файлы к сообщениям
Вы не можете скачивать файлы