История ненависти / Вендетта / Hate Story (Вивек Агнихотри / Vivek Agnihotri) [2012, Индия, Эротический триллер, DVDRip] MVO (Red Media)

Ответить на тему
 
Автор Сообщение

user ®

Стаж: 12 лет

Сообщений: 15092

Пост Пост: #1 от 11-Сен-2014 07:50

[Цитировать]

История ненависти / Вендетта / Hate Story
-Страна: Индия
Жанр: Эротический триллер
Год выпуска: 2012
Продолжительность: 02:19:28-Перевод: Профессиональный (многоголосый закадровый) - Red Media (ТК Индия ТВ)
Субтитры: нет--Режиссер: Вивек Агнихотри / Vivek Agnihotri-В ролях: Паоли Дам, Гульшан Деваях, Саурабх Дубей, Никхил Двиведи, Бхайрави Госвами, Мохан Капур, Джой Сенгупта, Гопал Сингх--Описание: Месть — это блюдо, которое подают холодным — таков девиз Кавьи Кришны, журналистки местной газеты, которая в мгновение ока превратилась из простой девушки в элитную девушку по вызову. Теперь сексуальность Кавьи — смертельное оружие против известного бизнесмена Сидхарта. Но что послужило тому причиной, узнаете, посмотрев этот фильм…-- --Качество видео: DVDRip
Формат видео: AVI-Видео: 640x272 (2.35:1), 23.976 fps, XviD build 50 ~1255 kbps avg, 0.30 bit/pixel
Аудио: 48 kHz, AC3 Dolby Digital, 2/0 (L,R) ch, ~192 kbps
-
Сэмпл / Sample--Риппер и сведение звука: soso4eg
Доп. информация: На вырезанный ТК промежуток 01:23:51 - 01:24:01 наложен любительский VО-- -
-
Скриншоты с названием:
-
Скриншоты:
-
MediaInfo:
General
Complete name : C:\INDIYA\[Релизы]\Hate.Story.2012.DVDRip.XviD-soso4eg.avi
Format : AVI
Format/Info : Audio Video Interleave
File size : 1.42 GiB
Duration : 2h 19mn
Overall bit rate : 1 457 Kbps
Movie name : Hate.Story.2012.DVDRip.XviD-soso4eg
Director : soso4eg
Writing application : VirtualDubMod 1.5.10.3 | www.virtualdub-fr.org || (build 2550/release)
Copyright : специально для BitTorrent трекер *** (ex torrents.ru)
Comment : пер. Red Media
Video
ID : 0
Format : MPEG-4 Visual
Format profile : Advanced Simple@L5
Format settings, BVOP : 2
Format settings, QPel : No
Format settings, GMC : No warppoints
Format settings, Matrix : Default (H.263)
Codec ID : XVID
Codec ID/Hint : XviD
Duration : 2h 19mn
Bit rate : 1 255 Kbps
Width : 640 pixels
Height : 272 pixels
Display aspect ratio : 2.35:1
Frame rate : 23.976 fps
Color space : YUV
Chroma subsampling : 4:2:0
Bit depth : 8 bits
Scan type : Progressive
Compression mode : Lossy
Bits/(Pixel*Frame) : 0.301
Stream size : 1.22 GiB (86%)
Writing library : XviD 1.2.1 (UTC 2008-12-04)
Audio
ID : 1
Format : AC-3
Format/Info : Audio Coding 3
Mode extension : CM (complete main)
Format settings, Endianness : Big
Codec ID : 2000
Duration : 2h 19mn
Bit rate mode : Constant
Bit rate : 192 Kbps
Channel(s) : 2 channels
Channel positions : Front: L R
Sampling rate : 48.0 KHz
Bit depth : 16 bits
Compression mode : Lossy
Stream size : 191 MiB (13%)
Alignment : Split accross interleaves
Interleave, duration : 42 ms (1.00 video frame)
Interleave, preload duration : 500 ms
-
Скачать

Скачать торрент! История ненависти / Вендетта / Hate Story (Вивек Агнихотри / Vivek Agnihotri) [2012, Индия, Эротический триллер, DVDRip] MVO (Red Media)

Как скачивать? · Что такое торрент? · Рейтинг и ограничения

Сайт не распространяет и не хранит электронные версии произведений, а лишь предоставляет доступ к создаваемому пользователями каталогу ссылок на торрент-файлы, которые содержат только списки хеш-сумм

[Профиль] [ЛС]
Показать сообщения:    
Ответить на тему

Текущее время: Сегодня 19:40

Часовой пояс: GMT + 4



Вы не можете начинать темы
Вы не можете отвечать на сообщения
Вы не можете редактировать свои сообщения
Вы не можете удалять свои сообщения
Вы не можете голосовать в опросах
Вы не можете прикреплять файлы к сообщениям
Вы не можете скачивать файлы