Зуб и ноготь / До последней капли крови / Tooth And Nail (Марк Янг / Mark Young) [2007, США, ужасы, триллер, пост-апокалипсис, WEB-DL 720p] VO + Sub Eng + Original Eng

Ответить на тему
 
Автор Сообщение

user ®

Стаж: 7 лет 7 месяцев

Сообщений: 20008

Пост Пост: #1 от 11-Сен-2014 07:50

[Цитировать]

Зуб и ноготь / До последней капли крови / Tooth And Nail
Страна: США
Студия: Morningstar Films
Жанр: ужасы, триллер, пост-апокалипсис
Год выпуска: 2007
Продолжительность: 01:34:22
Перевод: Одноголосый закадровый
Cубтитры: английские
Оригинальная аудиодорожка: английский
Режиссер: Марк Янг / Mark Young
В ролях: Николь Дюпор, Райдер Стронг, Майкл Келли, Александра Баррето, Роберт Кэрредин, Эмили Кэтерин Янг, Кевин Е. Скотт, Зак Робидас, Майкл Мэдсен, Винни Джонс
Описание: Маленькая группа оставшихся в живых в постапокалиптическом мире находит убежище в пустой больнице. Они спасают молодую девушку, но вскоре выясняется, что нападавшие являются каннибалами, называющими себя бродягами. Они начинают убивать поселенцев одного за другим, и пойманные в ловушку должны найти способ обмануть преследователей.
Альтернативное описание: Истощение нефтяных скважин вызвало апокалипсис на Земле. Скудные запасы природного газа не смогли долго служить заменой бензину. Были остановлены электростанции, магазины были опустошены. Голодающие люди начали мигрировать на юг, чтобы попробовать выжить в благоприятных климатических условиях. Людей было слишком много и началось взаимное уничтожение, битва за кусок хлеба и место под солнцем. Через несколько лет численность населения планеты сократилась на две трети...
В заброшенной больнице пытается выжить и начать строить новую жизнь небольшая группа людей. Они способны продержаться еще несколько месяцев на найденных запасах гуманитарной помощи, но из больницы начинают пропадать по ночам люди. Оказывается, неподалеку от больницы появились бродяги-каннибалы, которые по ночам приходят в клинику охотиться на людей, убивая и забирая с собой по одному человеку каждый раз. Малочисленное население коммуны не может оказать сопротивление, а бежать им некуда.
Опять наступает ночь. Кто умрет страшной смертью в этот раз?..

Sample
Тип релиза: WEB-DL 720p
Контейнер: MKV
Видео: MPEG4 AVC Video, H264, 16:9, 1280x720, 23.976 fps, 3714 kbps
Аудио: Russian (AC3, 2 ch, 192 kbps, 16 bits, 48.0 KHz) - VO
Аудио 2: English (AC3, 6 ch, 448 kbps, 16 bits, 48.0 KHz) - оригинал
Формат субтитров: softsub (SRT)

MediaInfo
General
Unique ID : 179620687058843487989405015184914194662 (0x8721AF9CA271D8EAA2975AF9DC2720E6)
Complete name : E:\1\Tooth.and.Nail.2007.720p.WEB-DL.AAC2.0.x264-JOBAH\Tooth and Nail 2007 WEB-DL 720p.mkv
Format : Matroska
Format version : Version 4 / Version 2
File size : 2.93 GiB
Duration : 1h 34mn
Overall bit rate : 4 443 Kbps
Encoded date : UTC 2014-09-09 03:52:23
Writing application : mkvmerge v6.1.0 ('Old Devil') built on Mar 2 2013 14:32:37
Writing library : libebml v1.3.0 + libmatroska v1.4.0
Video
ID : 1
Format : AVC
Format/Info : Advanced Video Codec
Format profile : High@L3.1
Format settings, CABAC : No
Format settings, ReFrames : 2 frames
Codec ID : V_MPEG4/ISO/AVC
Duration : 1h 34mn
Bit rate : 3 714 Kbps
Width : 1 280 pixels
Height : 720 pixels
Display aspect ratio : 16:9
Frame rate mode : Constant
Frame rate : 23.976 fps
Color space : YUV
Chroma subsampling : 4:2:0
Bit depth : 8 bits
Scan type : Progressive
Bits/(Pixel*Frame) : 0.168
Stream size : 2.45 GiB (84%)
Language : English
Default : Yes
Forced : No
Color primaries : BT.709
Transfer characteristics : BT.709
Matrix coefficients : BT.709
Audio #1
ID : 2
Format : AC-3
Format/Info : Audio Coding 3
Mode extension : CM (complete main)
Format settings, Endianness : Big
Codec ID : A_AC3
Duration : 1h 34mn
Bit rate mode : Constant
Bit rate : 192 Kbps
Channel count : 2 channels
Channel positions : Front: L R
Sampling rate : 48.0 KHz
Bit depth : 16 bits
Compression mode : Lossy
Stream size : 130 MiB (4%)
Language : Russian
Default : Yes
Forced : No
Audio #2
ID : 3
Format : AC-3
Format/Info : Audio Coding 3
Mode extension : CM (complete main)
Format settings, Endianness : Big
Codec ID : A_AC3
Duration : 1h 34mn
Bit rate mode : Constant
Bit rate : 448 Kbps
Channel count : 6 channels
Channel positions : Front: L C R, Side: L R, LFE
Sampling rate : 48.0 KHz
Bit depth : 16 bits
Compression mode : Lossy
Stream size : 302 MiB (10%)
Language : English
Default : No
Forced : No
Text
ID : 4
Format : UTF-8
Codec ID : S_TEXT/UTF8
Codec ID/Info : UTF-8 Plain Text
Language : English
Default : No
Forced : No
Скриншоты
Скачать

Скачать торрент!

Как скачивать? · Что такое торрент? · Рейтинг и ограничения

Сайт не распространяет и не хранит электронные версии произведений, а лишь предоставляет доступ к создаваемому пользователями каталогу ссылок на торрент-файлы, которые содержат только списки хеш-сумм

[Профиль] [ЛС]
Показать сообщения:    
Ответить на тему

Текущее время: Сегодня 05:55

Часовой пояс: GMT + 4



Вы не можете начинать темы
Вы не можете отвечать на сообщения
Вы не можете редактировать свои сообщения
Вы не можете удалять свои сообщения
Вы не можете голосовать в опросах
Вы не можете прикреплять файлы к сообщениям
Вы не можете скачивать файлы