Миллион способов потерять голову / A Million Ways to Die in the West (Сет МакФарлейн / Seth MacFarlane) [2014, США, комедия, вестерн, BDRip] Dub CEE

Ответить на тему
 
Автор Сообщение

user ®

Стаж: 7 лет 7 месяцев

Сообщений: 20008

Пост Пост: #1 от 11-Сен-2014 07:50

[Цитировать]

Миллион способов потерять голову / A Million Ways to Die in the West
«From the guy who brought you Ted»
-Страна: США / Bluegrass Films, Fuzzy Door Productions, Media Rights Capital, RGB Media
Жанр: комедия, вестерн
Год выпуска: 2014
Продолжительность: 01:56:01
Перевод: Профессиональный (дублированный) лицензия CEE
Cубтитры: нет
Режиссёр: Сет МакФарлейн / Seth MacFarlane
В ролях: Сет МакФарлейн, Шарлиз Терон, Аманда Сайфред, Лиам Нисон, Джованни Рибизи, Нил Патрик Харрис, Сара Силверман, Кристофер Хэйген, Уэс Стьюди, Мэтт Кларк.
Описание: Угораздило же влюбиться не в том месте и не в то время. Здесь хамят в ресторанах, о горячей воде слагают легенды, да и с транспортом полный коллапс. Но у таинственной незнакомки отменная фигура, да и стреляет она без промаха. Кто же по своей воле откажется от такой красотки?-Рейтинг
imdb.com: 6.20 (45 614)
kinopoisk.ru: 6.220 (10 033)
MPAA: - лицам до 17 лет обязательно присутствие взрослого-Сэмпл: http://multi-up.com/997582-Качество видео: BDRip [A.Million.Ways.to.Die.in.the.West.2014.1080p.CEE.Blu-ray.AVC.DTS-HD MA.5.1-nLiBRA]
Формат видео: AVI
Видео: XviD build 65, 720x304 (2.37:1), 23.976 fps, ~1349 kbps avg, 0.257 bit/pixel
Аудио: 48 kHz, AC3 Dolby Digital, 3/2 (L,C,R,l,r) + LFE ch, ~448 kbps avg (Dub)
-MediaInfo
Общее
Полное имя : D:\A.Million.Ways.to.Die.in.th.West.2014.Dub.BDRip.1,46Gb.XviD.AC3.avi
Формат : AVI
Формат/Информация : Audio Video Interleave
Размер файла : 1,46 Гбайт
Продолжительность : 1 ч. 56 м.
Общий поток : 1806 Кбит/сек
Название фильма : A Million Ways to Die in the West 2014
Режиссёр : Seth MacFarlane
Дата записи : 08.09.2014
Программа кодирования : VirtualDubModRus 1.5.10.2 (build 2542/release)
Библиотека кодирования : VirtualDubMod build 2542/release
Правообладатель : ***
Примечание : MooN_WalkeR
Видео
Идентификатор : 0
Формат : MPEG-4 Visual
Профиль формата : Advanced Simple@L5
Параметр BVOP формата : 1
Параметр QPel формата : Нет
Параметр GMC формата : Без точки перехода
Параметр матрицы формата : Выборочная
Идентификатор кодека : XVID
Идентификатор кодека/Подсказка : XviD
Продолжительность : 1 ч. 56 м.
Битрейт : 1349 Кбит/сек
Ширина : 720 пикселей
Высота : 304 пикселя
Соотношение сторон : 2,35:1
Частота кадров : 23,976 кадра/сек
Цветовое пространство : YUV
Субдискретизация насыщенности : 4:2:0
Битовая глубина : 8 бит
Тип развёртки : Прогрессивная
Метод сжатия : С потерями
Бит/(Пиксели*Кадры) : 0.257
Размер потока : 1,09 Гбайт (75%)
Библиотека кодирования : XviD 65
Аудио
Идентификатор : 1
Формат : AC-3
Формат/Информация : Audio Coding 3
Расширение режима : CM (complete main)
Параметр Endianness формата : Big
Идентификатор кодека : 2000
Продолжительность : 1 ч. 56 м.
Вид битрейта : Постоянный
Битрейт : 448 Кбит/сек
Каналы : 6 каналов
Расположение каналов : Front: L C R, Side: L R, LFE
Частота : 48,0 КГц
Битовая глубина : 16 бит
Метод сжатия : С потерями
Размер потока : 372 Мбайт (25%)
Выравнивание : Разделение по промежуткам
Продолжительность промежутка : 42 мс. (1,00 видеокадр)
Время предзагрузки промежутка : 500 мс.
Заголовок : Dub CEE
Скриншоты
Скачать

Скачать торрент!

Как скачивать? · Что такое торрент? · Рейтинг и ограничения

Сайт не распространяет и не хранит электронные версии произведений, а лишь предоставляет доступ к создаваемому пользователями каталогу ссылок на торрент-файлы, которые содержат только списки хеш-сумм

[Профиль] [ЛС]
Показать сообщения:    
Ответить на тему

Текущее время: Сегодня 12:55

Часовой пояс: GMT + 4



Вы не можете начинать темы
Вы не можете отвечать на сообщения
Вы не можете редактировать свои сообщения
Вы не можете удалять свои сообщения
Вы не можете голосовать в опросах
Вы не можете прикреплять файлы к сообщениям
Вы не можете скачивать файлы