Морпехи 2: Поле огня / Jarhead 2: Field of Fire (Дон Майкл Пол / Don Michael Paul) [2014, США, Боевик, Военный, HDRip] Dub

Ответить на тему
 
Автор Сообщение

user ®

Стаж: 7 лет 7 месяцев

Сообщений: 20008

Пост Пост: #1 от 10-Сен-2014 21:40

[Цитировать]

Морпехи 2: Поле Огня / Jarhead 2: Field of Fire
Страна: США
Жанр: Боевик, Военный
Год выпуска: 2014
Продолжительность: 01:42:37
Перевод: Профессиональный (дублированный)
Cубтитры: нет
Режиссер: Дон Майкл Пол / Don Michael Paul
В ролях: Джейсон Вонг, Асен Асенов, Дэниел Кетцер, Амр Эль-Баюми, Джесси Гарсиа, Коул Хаузер, Ронни Джатти, Джош Келли, Александр Крустев, Стивен Лэнг, Кесси Лейтон, Боян Левчев
Описание: Фильм про операцию морпехов в провинции Гильменд.
Качество видео: HDRip
Формат видео: AVI
Видео:XviD, 688x288, 884 kbps, 23,976 fps, 0,186 Bits/(Pixel*Frame)
Аудио: MP3, 48 kHz, 2 ch, 128 kbps

MediaInfo
Complete name : D:\Раздачи\Морпехи 2 Поле Огня.avi
Format : AVI
Format/Info : Audio Video Interleave
File size : 747 MiB
Duration : 1h 42mn
Overall bit rate : 1 017 Kbps
Video
ID : 0
Format : MPEG-4 Visual
Format profile : Advanced Simple@L5
Format settings, BVOP : 1
Format settings, QPel : No
Format settings, GMC : No warppoints
Format settings, Matrix : Custom
Codec ID : XVID
Codec ID/Hint : XviD
Duration : 1h 42mn
Bit rate : 884 Kbps
Width : 688 pixels
Height : 288 pixels
Display aspect ratio : 2.40:1
Frame rate : 23.976 fps
Color space : YUV
Chroma subsampling : 4:2:0
Bit depth : 8 bits
Scan type : Progressive
Compression mode : Lossy
Bits/(Pixel*Frame) : 0.186
Stream size : 648 MiB (87%)
Writing library : XviD 73
Audio
ID : 1
Format : MPEG Audio
Format version : Version 1
Format profile : Layer 3
Mode : Joint stereo
Codec ID : 55
Codec ID/Hint : MP3
Duration : 1h 42mn
Bit rate mode : Constant
Bit rate : 128 Kbps
Channel(s) : 2 channels
Sampling rate : 48.0 KHz
Compression mode : Lossy
Stream size : 93.9 MiB (13%)
Alignment : Aligned on interleaves
Interleave, duration : 167 ms (4.00 video frames)
Interleave, preload duration : 216 ms
Title : Jarhead.2.Field.Of.Fire.2014.D.HDRip_by_Bathory
Writing library : LAME3.99r
Encoding settings : -m j -V 4 -q 2 -lowpass 17 -b 128
Скриншот c названием фильма Скриншоты
Скачать

Скачать торрент!

Как скачивать? · Что такое торрент? · Рейтинг и ограничения

Сайт не распространяет и не хранит электронные версии произведений, а лишь предоставляет доступ к создаваемому пользователями каталогу ссылок на торрент-файлы, которые содержат только списки хеш-сумм

[Профиль] [ЛС]
Показать сообщения:    
Ответить на тему

Текущее время: Сегодня 22:18

Часовой пояс: GMT + 4



Вы не можете начинать темы
Вы не можете отвечать на сообщения
Вы не можете редактировать свои сообщения
Вы не можете удалять свои сообщения
Вы не можете голосовать в опросах
Вы не можете прикреплять файлы к сообщениям
Вы не можете скачивать файлы