Морпехи 2: Поле огня / Jarhead 2: Field of Fire (Дон Майкл Пол / Don Michael Paul) [2014 г., США, боевик, BDRip] Dub + Original (Eng) + Subs (Rus, Eng)

Ответить на тему
 
Автор Сообщение

user ®

Стаж: 7 лет 7 месяцев

Сообщений: 20008

Пост Пост: #1 от 10-Сен-2014 21:40

[Цитировать]

--Морпехи 2 / Jarhead 2: Field of Fire-- Страна: США
Жанр: боевик
Год выхода: 2014
Продолжительность: 01:42:30
Перевод: профессиональный (полное дублирование)
Субтитры: русские (2 вида, форсированные), английские (3 вида, форсированные)
Оригинальная аудиодорожка: английская
Режиссер: Дон Майкл Пол / Don Michael Paul
В ролях: Коул Хаузер, Джош Келли, Даниэль Савре, Букем Вудбайн, Ронни Джатти, Кэсси Лэйтон, Джесси Гарсиа, Джейсон Вонг, Эсай Моралес, Стивен Лэнг
О фильме: Морской пехоте США в очередной раз поручили очень ответственное и смертельно опасное задание. Они отправляются в одну из стран на Ближнем Востоке, в провинцию Гильменд. Морпехов преследуют вооруженные до зубов боевики. Сквозь град пуль и шквального огня от взрыва снарядов американские военные идут к выполнению поставленной цели. Но удастся ли им выполнить задание и остаться в живых?

Релиз от -
Автор: Gellard
Сэмпл: скачать
Качество: BDRip (источник: HDCLUB / Blu-Ray Disc / 1080p)
Формат: AVI
Видео: 720x304 (2.37:1), 23.976 fps, XviD build 65 ~2143 kbps avg, 0.41 bit/pixel
Аудио #1: (DUB) 48 kHz, AC3 Dolby Digital, 3/2 (L,C,R,l,r) + LFE ch, 448.00 kbps avg
Аудио #2: (ENG) 48 kHz, AC3 Dolby Digital, 3/2 (L,C,R,l,r) + LFE ch, 448.00 kbps avg
Формат субтитров: softsub (SRT)-
-
Скриншоты MediaInfo
General
Complete name                            : Morpehi.2.2014.DUAL.BDRip.XviD.AC3.-HQCLUB.avi
Format                                   : AVI
Format/Info                              : Audio Video Interleave
Format profile                           : OpenDML
File size                                : 2.18 GiB
Duration                                 : 1h 42mn
Overall bit rate                         : 3 046 Kbps
Movie name                               : Морпехи 2 / Jarhead 2: Field of Fire (2014) BDRip
Director                                 : Gellard
Genre                                    : боевик
Writing application                      : VirtualDubMod 1.5.10.2 (build 2542/release)
Copyright                                : HQCLUB
Comment                                  : 10.09.2014
Video
ID                                       : 0
Format                                   : MPEG-4 Visual
Format profile                           : Advanced Simple@L5
Format settings, BVOP                    : 1
Format settings, QPel                    : No
Format settings, GMC                     : No warppoints
Format settings, Matrix                  : Custom
Codec ID                                 : XVID
Codec ID/Hint                            : XviD
Duration                                 : 1h 42mn
Bit rate                                 : 2 132 Kbps
Width                                    : 720 pixels
Height                                   : 304 pixels
Display aspect ratio                     : 2.35:1
Frame rate                               : 23.976 fps
Color space                              : YUV
Chroma subsampling                       : 4:2:0
Bit depth                                : 8 bits
Scan type                                : Progressive
Compression mode                         : Lossy
Bits/(Pixel*Frame)                       : 0.406
Stream size                              : 1.53 GiB (70%)
Writing library                          : XviD 65
Audio #1
ID                                       : 1
Format                                   : AC-3
Format/Info                              : Audio Coding 3
Mode extension                           : CM (complete main)
Format settings, Endianness              : Big
Codec ID                                 : 2000
Duration                                 : 1h 42mn
Bit rate mode                            : Constant
Bit rate                                 : 448 Kbps
Channel count                            : 6 channels
Channel positions                        : Front: L C R, Side: L R, LFE
Sampling rate                            : 48.0 KHz
Bit depth                                : 16 bits
Compression mode                         : Lossy
Stream size                              : 328 MiB (15%)
Alignment                                : Split accross interleaves
Interleave, duration                     : 42 ms (1.00 video frame)
Interleave, preload duration             : 500 ms
Audio #2
ID                                       : 2
Format                                   : AC-3
Format/Info                              : Audio Coding 3
Mode extension                           : CM (complete main)
Format settings, Endianness              : Big
Codec ID                                 : 2000
Duration                                 : 1h 42mn
Bit rate mode                            : Constant
Bit rate                                 : 448 Kbps
Channel count                            : 6 channels
Channel positions                        : Front: L C R, Side: L R, LFE
Sampling rate                            : 48.0 KHz
Bit depth                                : 16 bits
Compression mode                         : Lossy
Stream size                              : 328 MiB (15%)
Alignment                                : Split accross interleaves
Interleave, duration                     : 42 ms (1.00 video frame)
Interleave, preload duration             : 500 ms
Скачать

Скачать торрент!

Как скачивать? · Что такое торрент? · Рейтинг и ограничения

Сайт не распространяет и не хранит электронные версии произведений, а лишь предоставляет доступ к создаваемому пользователями каталогу ссылок на торрент-файлы, которые содержат только списки хеш-сумм

[Профиль] [ЛС]
Показать сообщения:    
Ответить на тему

Текущее время: Сегодня 03:16

Часовой пояс: GMT + 4



Вы не можете начинать темы
Вы не можете отвечать на сообщения
Вы не можете редактировать свои сообщения
Вы не можете удалять свои сообщения
Вы не можете голосовать в опросах
Вы не можете прикреплять файлы к сообщениям
Вы не можете скачивать файлы