Комиссары / Кoмicaри (Николай Мащенко) [1969, Киноповесть, DVDRip]

Ответить на тему
 
Автор Сообщение

user ®

Стаж: 7 лет 7 месяцев

Сообщений: 20008

Пост Пост: #1 от 10-Сен-2014 15:20

[Цитировать]

Комиссары / Кoмicaри / Реставрация, Национальный Центр Александра Довженко
Жанр: Киноповесть
Год выпуска: 1969
Продолжительность: 01:13:39
Режиссёр: Николай Мащенко
В ролях: Константин Степанков, Иван Миколайчук, Федор Панасенко, Борислав Брондуков, Владимир Скомаровский, Лариса Кадочникова, Иван Гаврилюк, Леонид Бакштаев, Михаил Голубович

Описание: О камандирах, мужественно прошедших гражданскую войну, но оказавшихся незащищенными перед испытаниями мирного времени.
По мотивам произведений Юрия Либединского. 1921 год. Партия посылает своих самых испытанных бойцов учиться хозяйствовать, строить молодое государство рабочих. Но недобитые банды готовятся напасть на город. На курсах тоже не все благополучно. Разные люди собрались здесь, и по-разному относятся они к новым задачам...

Доп. информация: Релиз:
Рип выполнен pmv с исходника, найденного в сети.
"К сожалению, звук авторы DVD сильно испортили удалением шумов, в результате возник "квакающий" эффект и заметно изменился тембр голосов актёров.
Две звуковые дорожки: русская и украинская.

Сэмпл: http://multi-up.com/998059
Качество видео: DVDRip
Формат видео: AVI
Видео: 720x544 (1.32:1), 25 fps, XviD build 73 ~1790 kbps avg, 0.18 bit/pixel
Аудио: Audio #rus: 48 kHz, MPEG Layer 3, 2 ch, ~128.00 kbps avg
Audio #ukr: 48 kHz, MPEG Layer 3, 2 ch, ~128.00 kbps avg
MediaInfo
Format : AVI
Format/Info : Audio Video Interleave
File size : 1.06 GiB
Duration : 1h 13mn
Overall bit rate : 2 062 Kbps
Writing application : VirtualDubMod 1.5.10.3 | www.virtualdub-fr.org || (build 2550/release)
Writing library : VirtualDubMod build 2550/release
Video
ID : 0
Format : MPEG-4 Visual
Format profile : Advanced Simple@L5
Format settings, BVOP : Yes
Format settings, QPel : No
Format settings, GMC : No warppoints
Format settings, Matrix : Default (H.263)
Codec ID : XVID
Codec ID/Hint : XviD
Duration : 1h 13mn
Bit rate : 1 791 Kbps
Width : 720 pixels
Height : 544 pixels
Display aspect ratio : 4:3
Frame rate : 25.000 fps
Color space : YUV
Chroma subsampling : 4:2:0
Bit depth : 8 bits
Scan type : Progressive
Bits/(Pixel*Frame) : 0.183
Stream size : 944 MiB (87%)
Writing library : XviD 73
Audio #1
ID : 1
Format : MPEG Audio
Format version : Version 1
Format profile : Layer 3
Mode : Joint stereo
Codec ID : 55
Codec ID/Hint : MP3
Duration : 1h 13mn
Bit rate mode : Constant
Bit rate : 128 Kbps
Channel(s) : 2 channels
Sampling rate : 48.0 KHz
Stream size : 67.4 MiB (6%)
Alignment : Aligned on interleaves
Interleave, duration : 40 ms (1.00 video frame)
Interleave, preload duration : 504 ms
Audio #2
ID : 2
Format : MPEG Audio
Format version : Version 1
Format profile : Layer 3
Mode : Joint stereo
Codec ID : 55
Codec ID/Hint : MP3
Duration : 1h 13mn
Bit rate mode : Constant
Bit rate : 128 Kbps
Channel(s) : 2 channels
Sampling rate : 48.0 KHz
Stream size : 67.4 MiB (6%)
Alignment : Aligned on interleaves
Interleave, duration : 40 ms (1.00 video frame)
Interleave, preload duration : 504 ms
Скриншот c названием фильма Скриншоты
Скачать

Скачать торрент!

Как скачивать? · Что такое торрент? · Рейтинг и ограничения

Сайт не распространяет и не хранит электронные версии произведений, а лишь предоставляет доступ к создаваемому пользователями каталогу ссылок на торрент-файлы, которые содержат только списки хеш-сумм

[Профиль] [ЛС]
Показать сообщения:    
Ответить на тему

Текущее время: Сегодня 13:39

Часовой пояс: GMT + 4



Вы не можете начинать темы
Вы не можете отвечать на сообщения
Вы не можете редактировать свои сообщения
Вы не можете удалять свои сообщения
Вы не можете голосовать в опросах
Вы не можете прикреплять файлы к сообщениям
Вы не можете скачивать файлы