Закусочная смерти / Drive Thru (Брендан Коулз / Brendan Cowles, Шэйн Кун /Shane Kuhn) [2007, США, ужасы, комедия, WEB-DL 720p] MVO + Original Eng

Ответить на тему
 
Автор Сообщение

user ®

Стаж: 8 лет 6 месяцев

Сообщений: 20007

Пост Пост: #1 от 10-Сен-2014 02:15

[Цитировать]

Закусочная смерти / Drive Thru
Страна: США
Студия: Lions Gate Films Inc., Armada Pictures
Жанр: ужасы, комедия
Год выпуска: 2007
Продолжительность: 01:31:12
Перевод: Профессиональный (многоголосый закадровый)
Cубтитры: нет
Оригинальная аудиодорожка: английский
Режиссер: Брендан Коулз / Brendan Cowles, Шэйн Кун /Shane Kuhn
В ролях: Лейтон Мистер, Ник Д'Агосто, Мелора Хардин, Лола Глаудини, Ларри Джо Кэмпбелл, Ван Де Ла Планте, Пенн Бэджли, Сита Янг, Рэйчел Белла, Джон Гилберт
Описание: Одноклассники Маккензи Карпентер внезапно начинают умирать от большой потери крови. Она пытается выяснить, в чем же дело. И обнаруживает, что тесно связана с убийцами и их жертвами. Безжалостный Рогатый клоун преследует девушку, забрасывая странными сообщениями, скрытыми в старых игрушках… Она понимает, что должна встретиться с злодеем лицом к лицу и противостоять ему, чего бы это ей ни стоило !

Sample
Тип релиза: WEB-DL 720p
Контейнер: MKV
Видео: MPEG4 AVC Video, H264, 16:9, 1280x720, 23.976 fps, 4041 kbps
Аудио: Russian (AC3, 2 ch, 192 kbps, 16 bits, 48.0 KHz) - MVO
Аудио 2: English (AC3, 2 ch, 192 kbps, 16 bits, 48.0 KHz) - оригинал

MediaInfo
General
Unique ID : 244676530189058414548812761133119296769 (0xB812FC5175DEB527A6FB4BF05DA1D501)
Complete name : E:\1\Drive.Thru.2007.720p.WEB-DL.AAC2.0.H.264-NoGrp\Drive Thru 2007 WEB-DL 720p.mkv
Format : Matroska
Format version : Version 4 / Version 2
File size : 2.88 GiB
Duration : 1h 31mn
Overall bit rate : 4 515 Kbps
Encoded date : UTC 2014-09-08 01:10:39
Writing application : mkvmerge v6.1.0 ('Old Devil') built on Mar 2 2013 14:32:37
Writing library : libebml v1.3.0 + libmatroska v1.4.0
Video
ID : 1
Format : AVC
Format/Info : Advanced Video Codec
Format profile : High@L3.1
Format settings, CABAC : No
Format settings, ReFrames : 2 frames
Codec ID : V_MPEG4/ISO/AVC
Duration : 1h 31mn
Bit rate : 4 041 Kbps
Width : 1 280 pixels
Height : 720 pixels
Display aspect ratio : 16:9
Frame rate mode : Constant
Frame rate : 23.976 fps
Color space : YUV
Chroma subsampling : 4:2:0
Bit depth : 8 bits
Scan type : Progressive
Bits/(Pixel*Frame) : 0.183
Stream size : 2.57 GiB (90%)
Language : English
Default : Yes
Forced : No
Color primaries : BT.709
Transfer characteristics : BT.709
Matrix coefficients : BT.709
Audio #1
ID : 2
Format : AC-3
Format/Info : Audio Coding 3
Mode extension : CM (complete main)
Format settings, Endianness : Big
Codec ID : A_AC3
Duration : 1h 31mn
Bit rate mode : Constant
Bit rate : 192 Kbps
Channel count : 2 channels
Channel positions : Front: L R
Sampling rate : 48.0 KHz
Bit depth : 16 bits
Compression mode : Lossy
Stream size : 125 MiB (4%)
Language : Russian
Default : Yes
Forced : No
Audio #2
ID : 3
Format : AC-3
Format/Info : Audio Coding 3
Mode extension : CM (complete main)
Format settings, Endianness : Big
Codec ID : A_AC3
Duration : 1h 31mn
Bit rate mode : Constant
Bit rate : 192 Kbps
Channel count : 2 channels
Channel positions : Front: L R
Sampling rate : 48.0 KHz
Bit depth : 16 bits
Compression mode : Lossy
Stream size : 125 MiB (4%)
Language : English
Default : No
Forced : No
Menu
00:00:00.000 : en:Horny The Clown
00:04:53.000 : en:Opening Credits
00:09:28.000 : en:N1KLPL8
00:15:55.000 : en:Gruesome Discovery
00:18:49.000 : en:A Broken Heart
00:21:41.000 : en:Dark Room
00:27:10.000 : en:Investigation
00:33:34.000 : en:Birthday Present
00:37:34.000 : en:Haunted House
00:45:21.000 : en:Escape
00:53:21.000 : en:Fun Space
00:58:03.000 : en:Mom's Secret
01:03:52.000 : en:Vigilantes
01:15:45.000 : en:Birthday Party
01:18:45.000 : en:It's Not Over
01:22:28.000 : en:End Credits
Скриншоты
Скачать

Скачать торрент!

Как скачивать? · Что такое торрент? · Рейтинг и ограничения

Сайт не распространяет и не хранит электронные версии произведений, а лишь предоставляет доступ к создаваемому пользователями каталогу ссылок на торрент-файлы, которые содержат только списки хеш-сумм

[Профиль] [ЛС]
Показать сообщения:    
Ответить на тему

Текущее время: Сегодня 11:37

Часовой пояс: GMT + 4



Вы не можете начинать темы
Вы не можете отвечать на сообщения
Вы не можете редактировать свои сообщения
Вы не можете удалять свои сообщения
Вы не можете голосовать в опросах
Вы не можете прикреплять файлы к сообщениям
Вы не можете скачивать файлы